  0
SECTION
  2
HEADER
  9
$ACADVER
  1
AC1015
  9
$ACADMAINTVER
 70
    20
  9
$DWGCODEPAGE
  3
ANSI_932
  9
$INSBASE
 10
0.0
 20
0.0
 30
0.0
  9
$EXTMIN
 10
19.99999934879855
 20
14.99999976028584
 30
0.0
  9
$EXTMAX
 10
405.0
 20
282.0000000000001
 30
0.0
  9
$LIMMIN
 10
19.99999999999994
 20
15.0
  9
$LIMMAX
 10
405.0
 20
282.0000000000001
  9
$ORTHOMODE
 70
     0
  9
$REGENMODE
 70
     1
  9
$FILLMODE
 70
     1
  9
$QTEXTMODE
 70
     0
  9
$MIRRTEXT
 70
     1
  9
$LTSCALE
 40
1.0
  9
$ATTMODE
 70
     1
  9
$TEXTSIZE
 40
1.0
  9
$TRACEWID
 40
1.0
  9
$TEXTSTYLE
  7
ACISOTS
  9
$CLAYER
  8
AM_0
  9
$CELTYPE
  6
ByLayer
  9
$CECOLOR
 62
   256
  9
$CELTSCALE
 40
1.0
  9
$DISPSILH
 70
     0
  9
$DIMSCALE
 40
1.0
  9
$DIMASZ
 40
2.5
  9
$DIMEXO
 40
1.0
  9
$DIMDLI
 40
10.0
  9
$DIMRND
 40
0.0
  9
$DIMDLE
 40
0.0
  9
$DIMEXE
 40
1.0
  9
$DIMTP
 40
0.1
  9
$DIMTM
 40
0.1
  9
$DIMTXT
 40
3.5
  9
$DIMCEN
 40
0.0
  9
$DIMTSZ
 40
0.0
  9
$DIMTOL
 70
     0
  9
$DIMLIM
 70
     0
  9
$DIMTIH
 70
     0
  9
$DIMTOH
 70
     0
  9
$DIMSE1
 70
     0
  9
$DIMSE2
 70
     0
  9
$DIMTAD
 70
     1
  9
$DIMZIN
 70
     8
  9
$DIMBLK
  1

  9
$DIMASO
 70
     1
  9
$DIMSHO
 70
     1
  9
$DIMPOST
  1

  9
$DIMAPOST
  1
"
  9
$DIMALT
 70
     0
  9
$DIMALTD
 70
     2
  9
$DIMALTF
 40
0.0393701
  9
$DIMLFAC
 40
1.0
  9
$DIMTOFL
 70
     1
  9
$DIMTVP
 40
0.0
  9
$DIMTIX
 70
     0
  9
$DIMSOXD
 70
     0
  9
$DIMSAH
 70
     0
  9
$DIMBLK1
  1

  9
$DIMBLK2
  1

  9
$DIMSTYLE
  2
AM_ISO
  9
$DIMCLRD
 70
   256
  9
$DIMCLRE
 70
   256
  9
$DIMCLRT
 70
     2
  9
$DIMTFAC
 40
0.71
  9
$DIMGAP
 40
1.5
  9
$DIMJUST
 70
     0
  9
$DIMSD1
 70
     0
  9
$DIMSD2
 70
     0
  9
$DIMTOLJ
 70
     0
  9
$DIMTZIN
 70
     8
  9
$DIMALTZ
 70
     0
  9
$DIMALTTZ
 70
     0
  9
$DIMUPT
 70
     0
  9
$DIMDEC
 70
     0
  9
$DIMTDEC
 70
     3
  9
$DIMALTU
 70
     2
  9
$DIMALTTD
 70
     4
  9
$DIMTXSTY
  7
STANDARD
  9
$DIMAUNIT
 70
     0
  9
$DIMADEC
 70
     0
  9
$DIMALTRND
 40
0.0
  9
$DIMAZIN
 70
     2
  9
$DIMDSEP
 70
    46
  9
$DIMATFIT
 70
     3
  9
$DIMFRAC
 70
     0
  9
$DIMLDRBLK
  1

  9
$DIMLUNIT
 70
     2
  9
$DIMLWD
 70
    -1
  9
$DIMLWE
 70
    -1
  9
$DIMTMOVE
 70
     0
  9
$LUNITS
 70
     2
  9
$LUPREC
 70
     2
  9
$SKETCHINC
 40
1.0
  9
$FILLETRAD
 40
2.5
  9
$AUNITS
 70
     0
  9
$AUPREC
 70
     0
  9
$MENU
  1
.
  9
$ELEVATION
 40
0.0
  9
$PELEVATION
 40
0.0
  9
$THICKNESS
 40
0.0
  9
$LIMCHECK
 70
     0
  9
$CHAMFERA
 40
2.5
  9
$CHAMFERB
 40
2.5
  9
$CHAMFERC
 40
20.0
  9
$CHAMFERD
 40
0.0
  9
$SKPOLY
 70
     0
  9
$TDCREATE
 40
2454065.595304538
  9
$TDUCREATE
 40
2454065.220304537
  9
$TDUPDATE
 40
2454162.641291956
  9
$TDUUPDATE
 40
2454162.266291956
  9
$TDINDWG
 40
0.0045287269
  9
$TDUSRTIMER
 40
0.0045287269
  9
$USRTIMER
 70
     1
  9
$ANGBASE
 50
0.0
  9
$ANGDIR
 70
     0
  9
$PDMODE
 70
     0
  9
$PDSIZE
 40
0.0
  9
$PLINEWID
 40
0.0
  9
$SPLFRAME
 70
     0
  9
$SPLINETYPE
 70
     6
  9
$SPLINESEGS
 70
     8
  9
$HANDSEED
  5
AF8
  9
$SURFTAB1
 70
     6
  9
$SURFTAB2
 70
     6
  9
$SURFTYPE
 70
     6
  9
$SURFU
 70
     6
  9
$SURFV
 70
     6
  9
$UCSBASE
  2

  9
$UCSNAME
  2

  9
$UCSORG
 10
0.0
 20
0.0
 30
0.0
  9
$UCSXDIR
 10
1.0
 20
0.0
 30
0.0
  9
$UCSYDIR
 10
0.0
 20
1.0
 30
0.0
  9
$UCSORTHOREF
  2

  9
$UCSORTHOVIEW
 70
     0
  9
$UCSORGTOP
 10
0.0
 20
0.0
 30
0.0
  9
$UCSORGBOTTOM
 10
0.0
 20
0.0
 30
0.0
  9
$UCSORGLEFT
 10
0.0
 20
0.0
 30
0.0
  9
$UCSORGRIGHT
 10
0.0
 20
0.0
 30
0.0
  9
$UCSORGFRONT
 10
0.0
 20
0.0
 30
0.0
  9
$UCSORGBACK
 10
0.0
 20
0.0
 30
0.0
  9
$PUCSBASE
  2

  9
$PUCSNAME
  2

  9
$PUCSORG
 10
0.0
 20
0.0
 30
0.0
  9
$PUCSXDIR
 10
1.0
 20
0.0
 30
0.0
  9
$PUCSYDIR
 10
0.0
 20
1.0
 30
0.0
  9
$PUCSORTHOREF
  2

  9
$PUCSORTHOVIEW
 70
     0
  9
$PUCSORGTOP
 10
0.0
 20
0.0
 30
0.0
  9
$PUCSORGBOTTOM
 10
0.0
 20
0.0
 30
0.0
  9
$PUCSORGLEFT
 10
0.0
 20
0.0
 30
0.0
  9
$PUCSORGRIGHT
 10
0.0
 20
0.0
 30
0.0
  9
$PUCSORGFRONT
 10
0.0
 20
0.0
 30
0.0
  9
$PUCSORGBACK
 10
0.0
 20
0.0
 30
0.0
  9
$USERI1
 70
     0
  9
$USERI2
 70
     0
  9
$USERI3
 70
     0
  9
$USERI4
 70
     0
  9
$USERI5
 70
     0
  9
$USERR1
 40
0.0
  9
$USERR2
 40
0.0
  9
$USERR3
 40
0.0
  9
$USERR4
 40
0.0
  9
$USERR5
 40
0.0
  9
$WORLDVIEW
 70
     1
  9
$SHADEDGE
 70
     3
  9
$SHADEDIF
 70
    70
  9
$TILEMODE
 70
     1
  9
$MAXACTVP
 70
    64
  9
$PINSBASE
 10
0.0
 20
0.0
 30
0.0
  9
$PLIMCHECK
 70
     0
  9
$PEXTMIN
 10
1.000000000000000E+20
 20
1.000000000000000E+20
 30
1.000000000000000E+20
  9
$PEXTMAX
 10
-1.000000000000000E+20
 20
-1.000000000000000E+20
 30
-1.000000000000000E+20
  9
$PLIMMIN
 10
0.0
 20
0.0
  9
$PLIMMAX
 10
420.0
 20
297.0
  9
$UNITMODE
 70
     0
  9
$VISRETAIN
 70
     1
  9
$PLINEGEN
 70
     0
  9
$PSLTSCALE
 70
     1
  9
$TREEDEPTH
 70
  3020
  9
$CMLSTYLE
  2
Standard
  9
$CMLJUST
 70
     0
  9
$CMLSCALE
 40
20.0
  9
$PROXYGRAPHICS
 70
     1
  9
$MEASUREMENT
 70
     1
  9
$CELWEIGHT
370
    -1
  9
$ENDCAPS
280
     0
  9
$JOINSTYLE
280
     0
  9
$LWDISPLAY
290
     0
  9
$INSUNITS
 70
     4
  9
$HYPERLINKBASE
  1

  9
$STYLESHEET
  1

  9
$XEDIT
290
     1
  9
$CEPSNTYPE
380
     0
  9
$PSTYLEMODE
290
     1
  9
$FINGERPRINTGUID
  2
{6F01806F-074C-435C-8BBD-9494BF2150A4}
  9
$VERSIONGUID
  2
{95CF24D6-CEBE-4B62-9CB9-F8006C8D2893}
  9
$EXTNAMES
290
     1
  9
$PSVPSCALE
 40
0.0
  9
$OLESTARTUP
290
     0
  0
ENDSEC
  0
SECTION
  2
CLASSES
  0
CLASS
  1
ACDBDICTIONARYWDFLT
  2
AcDbDictionaryWithDefault
  3
ObjectDBX Classes
 90
        0
280
     0
281
     0
  0
CLASS
  1
ACDBPLACEHOLDER
  2
AcDbPlaceHolder
  3
ObjectDBX Classes
 90
        0
280
     0
281
     0
  0
CLASS
  1
LAYOUT
  2
AcDbLayout
  3
ObjectDBX Classes
 90
        0
280
     0
281
     0
  0
CLASS
  1
ACME_DOCUMENT
  2
AcMeDbDoc
  3
AcMeServices
 90
        0
280
     0
281
     0
  0
CLASS
  1
AMGSETTINGSOBJ
  2
AmgSettingsObj
  3
"AcadM|Product Description: AutoCAD Mechanical 2000|Company: Autodesk"
 90
        0
280
     0
281
     0
  0
CLASS
  1
ACMESCOPE
  2
AcMeScope
  3
AcMeServices
 90
        0
280
     0
281
     0
  0
CLASS
  1
ACMECOMMANDHISTORY
  2
AcMeCommandHistory
  3
AcMeServices
 90
        0
280
     0
281
     0
  0
CLASS
  1
ACIMSYSVARMAN
  2
AcImSysVarManager
  3
AcMeServices
 90
        0
280
     0
281
     0
  0
CLASS
  1
ACIMREALSYSVAR
  2
AcImRealSysVar
  3
AcMeServices
 90
        0
280
     0
281
     0
  0
CLASS
  1
ACIMINTSYSVAR
  2
AcImIntSysVar
  3
AcMeServices
 90
        0
280
     0
281
     0
  0
CLASS
  1
ACMEDRAWINGMAN
  2
AcMeDrawingMan
  3
AcMeServices
 90
        0
280
     0
281
     0
  0
CLASS
  1
ACMEVIEW
  2
AcMeView
  3
AcMeServices
 90
        0
280
     0
281
     0
  0
CLASS
  1
ACDBENTITYCACHE
  2
AcMeEntityCache
  3
AcMeServices
 90
        0
280
     0
281
     0
  0
CLASS
  1
GSMANAGER
  2
AcMeGSManager
  3
AcMeServices
 90
        0
280
     0
281
     0
  0
CLASS
  1
AMDTINTERNALREACTOR
  2
AmdtInternalReactor
  3
AcMeServices
 90
        0
280
     0
281
     0
  0
CLASS
  1
ACMESTATEMGR
  2
AcMeStateMgr
  3
AcMeServices
 90
        0
280
     0
281
     0
  0
CLASS
  1
ACGREFMASTER
  2
AcGrefMaster
  3
AcAttribServices
 90
        0
280
     0
281
     0
  0
CLASS
  1
ACME_DATABASE
  2
AcMeDbDatabase
  3
AcMeServices
 90
        0
280
     0
281
     0
  0
CLASS
  1
ACRFINSADJUSTERMGR
  2
AcRfInsAdjusterMgr
  3
AcMeServices
 90
        0
280
     0
281
     0
  0
CLASS
  1
ACGREFACADMASTER
  2
AcGrefacadMaster
  3
AcGrefServices
 90
        0
280
     0
281
     0
  0
CLASS
  1
AMIMASTER
  2
AmiMaster
  3
AmiServices
 90
        0
280
     0
281
     0
  0
CLASS
  1
ACMDATADICTIONARY
  2
AcmDataDictionary
  3
"AcmSymBB|Product Description: AutoCAD Mechanical 2004 DX|Company: Autodesk"
 90
        0
280
     0
281
     0
  0
CLASS
  1
ACMDATAENTRYBLOCK
  2
AcmDataEntryBlock
  3
"AcmSymBB|Product Description: AutoCAD Mechanical 2004 DX|Company: Autodesk"
 90
    32768
280
     0
281
     0
  0
CLASS
  1
ACIMSTRSYSVAR
  2
AcImStrSysVar
  3
AcMeServices
 90
        0
280
     0
281
     0
  0
CLASS
  1
ACMSTANDARDISO
  2
AcmStandardISO
  3
"Amdt_StdImp|Product Description: AutoCAD Mechanical 2004 DX|Company: Autodesk"
 90
        0
280
     0
281
     0
  0
CLASS
  1
AMGOBJPROPCFG
  2
AmgObjPropCfg
  3
"AmgLay|Product Description: AutoCAD Mechanical 2000|Company: Autodesk"
 90
        1
280
     0
281
     0
  0
CLASS
  1
AMDTEDGESTANDARDISO
  2
AmdtEdgeStdISO
  3
"Amdt_StdImp|Product Description: AutoCAD Mechanical 2004 DX|Company: Autodesk"
 90
    32768
280
     0
281
     0
  0
CLASS
  1
ACMSURFSTANDARDISO
  2
AcmSurfTextStdISO
  3
"Amdt_StdImp|Product Description: AutoCAD Mechanical 2004 DX|Company: Autodesk"
 90
        0
280
     0
281
     0
  0
CLASS
  1
ACMFCFSTANDARDISO
  2
AcmFCFStdISO
  3
"Amdt_StdImp|Product Description: AutoCAD Mechanical 2004 DX|Company: Autodesk"
 90
        0
280
     0
281
     0
  0
CLASS
  1
ACMWELDSTANDARDISO
  2
AcmWeldingStdISO
  3
"Amdt_StdImp|Product Description: AutoCAD Mechanical 2004 DX|Company: Autodesk"
 90
        0
280
     0
281
     0
  0
CLASS
  1
ACMIDSTANDARDISO
  2
AcmIdStdISO
  3
"Amdt_StdImp|Product Description: AutoCAD Mechanical 2004 DX|Company: Autodesk"
 90
        0
280
     0
281
     0
  0
CLASS
  1
ACMDATUMSTANDARDISO
  2
AcmDatumStdISO
  3
"Amdt_StdImp|Product Description: AutoCAD Mechanical 2004 DX|Company: Autodesk"
 90
        0
280
     0
281
     0
  0
CLASS
  1
ACMBOMSTANDARDISO
  2
AcmBOMStdISO
  3
"Amdt_StdImp|Product Description: AutoCAD Mechanical 2004 DX|Company: Autodesk"
 90
        0
280
     0
281
     0
  0
CLASS
  1
ACMDETAILSTANDARDISO
  2
AmdtDetailSymStdISO
  3
"Amdt_StdImp|Product Description: AutoCAD Mechanical 2004 DX|Company: Autodesk"
 90
        0
280
     0
281
     0
  0
CLASS
  1
ACMSECTIONSTANDARDISO
  2
AmdtSectionSymStdISO
  3
"Amdt_StdImp|Product Description: AutoCAD Mechanical 2004 DX|Company: Autodesk"
 90
        0
280
     0
281
     0
  0
CLASS
  1
ACMCENTERLINESTANDARDISO
  2
AmdtCenterLineStdISO
  3
"Amdt_StdImp|Product Description: AutoCAD Mechanical 2004 DX|Company: Autodesk"
 90
        0
280
     0
281
     0
  0
CLASS
  1
ACMNOTESTANDARDISO
  2
AmdtNoteStdISO
  3
"Amdt_StdImp|Product Description: AutoCAD Mechanical 2004 DX|Company: Autodesk"
 90
        0
280
     0
281
     0
  0
CLASS
  1
ACAMGLAYSTD
  2
AcAmgLayStd
  3
"AcAmgLayStd|Product Description: AutoCAD Mechanical 2000|Company: Autodesk"
 90
        0
280
     0
281
     0
  0
CLASS
  1
ACAMGDIMSTD
  2
AcAmgDimStd
  3
"AcAmgDimStd|Product Description: AutoCAD Mechanical 2000|Company: Autodesk"
 90
        0
280
     0
281
     0
  0
CLASS
  1
ACAMGHOLECHARTSTDISO
  2
AcAmgHoleChartStdISO
  3
ACMSYMBB_MODULE_NAME
 90
        0
280
     0
281
     0
  0
CLASS
  1
ACAMGTITLESTD
  2
AcAmgTitleStd
  3
"TITLEAPP"
 90
        0
280
     0
281
     0
  0
CLASS
  1
LAYER_INDEX
  2
AcDbLayerIndex
  3
ObjectDBX Classes
 90
    32768
280
     0
281
     0
  0
CLASS
  1
IDBUFFER
  2
AcDbIdBuffer
  3
ObjectDBX Classes
 90
    32768
280
     0
281
     0
  0
CLASS
  1
DICTIONARYVAR
  2
AcDbDictionaryVar
  3
ObjectDBX Classes
 90
        0
280
     0
281
     0
  0
CLASS
  1
AM_DRAWING_MGR
  2
AcDmDwgMgr
  3
AcMechDwgViewMgmt
 90
        0
280
     0
281
     0
  0
CLASS
  1
AM_DWG_DOCUMENT
  2
AcDmDwgDocument
  3
AcMechDwgViewMgmt
 90
        0
280
     0
281
     0
  0
CLASS
  1
AM_DWG_SHEET
  2
AcDmSheet
  3
AcMechDwgViewMgmt
 90
        0
280
     0
281
     0
  0
CLASS
  1
AM_VIEWDIMPARMAP
  2
AcDmViewDimParMap
  3
AcMechDwgViewMgmt
 90
        0
280
     0
281
     0
  0
CLASS
  1
AM_DWGMGR_NAME
  2
AcDmDwgMgrName
  3
AcMechDwgViewMgmt
 90
        0
280
     0
281
     0
  0
CLASS
  1
AMDTMENUSTATEMGR
  2
AmdtMenuStateMgr
  3
McadcomServices
 90
        0
280
     0
281
     0
  0
CLASS
  1
AMDTMCOMMENUSTATE
  2
AmdtMcomMenuState
  3
McadcomServices
 90
        0
280
     0
281
     0
  0
CLASS
  1
MAPIAMMOUDLE
  2
MApiAmModule
  3
MApiAmServices
 90
        0
280
     0
281
     0
  0
CLASS
  1
AMDTADMENUSTATE
  2
AmdtAdMenuState
  3
DesignerServices
 90
        0
280
     0
281
     0
  0
CLASS
  1
ADAPPL
  2
AcAdAppl
  3
DesignerServices
 90
        0
280
     0
281
     0
  0
CLASS
  1
DEPMGR
  2
AcAdDepMgr
  3
DesignerServices
 90
        0
280
     0
281
     0
  0
CLASS
  1
PARAMMGR
  2
AcAdParamMgr
  3
DesignerServices
 90
        0
280
     0
281
     0
  0
CLASS
  1
PARAMSCOPE
  2
AcAdParamScope
  3
DesignerServices
 90
        0
280
     0
281
     0
  0
CLASS
  1
NAMEDAPPL
  2
AcAdNamedAppl
  3
DesignerServices
 90
        0
280
     0
281
     0
  0
CLASS
  1
AMDTDMMENUSTATE
  2
AmdtDmMenuState
  3
AcMechDwgViewMgmt
 90
        0
280
     0
281
     0
  0
CLASS
  1
AMDTAMMENUSTATE
  2
AmdtAmMenuState
  3
DesignerAssemblies
 90
        0
280
     0
281
     0
  0
CLASS
  1
ACAMPROJECT
  2
AcAmProject
  3
DesignerAssemblies
 90
        0
280
     0
281
     0
  0
CLASS
  1
ACAMGRCOMPDEF
  2
AcAmGrCompDef
  3
DesignerAssemblies
 90
        0
280
     0
281
     0
  0
CLASS
  1
ACCMCONTEXT
  2
AcCmContext
  3
DesignerAssemblies
 90
        0
280
     0
281
     0
  0
CLASS
  1
ACAMCOMPDEF
  2
AcAmCompDef
  3
DesignerAssemblies
 90
        0
280
     0
281
     0
  0
CLASS
  1
ACAMCOMPDEFMGR
  2
AcAmCompDefMgr
  3
DesignerAssemblies
 90
        0
280
     0
281
     0
  0
CLASS
  1
AMCONTEXTMGR
  2
AcAmContextMgr
  3
DesignerAssemblies
 90
        0
280
     0
281
     0
  0
CLASS
  1
ACAMCONTEXTMODELER
  2
AcAmContextModeler
  3
DesignerAssemblies
 90
        0
280
     0
281
     0
  0
CLASS
  1
ACMTHREADLINESTANDARDISO
  2
AmdtThreadLineStdISO
  3
"Amdt_StdImp|Product Description: AutoCAD Mechanical 2004 DX|Company: Autodesk"
 90
        0
280
     0
281
     0
  0
CLASS
  1
CATALOGSTATE
  2
AcAmCatalogState
  3
DesignerAssemblies
 90
        0
280
     0
281
     0
  0
CLASS
  1
ACAMGRCOMPDEFSET
  2
AcAmGrCompDefSet
  3
DesignerAssemblies
 90
        0
280
     0
281
     0
  0
CLASS
  1
AMDTBROWSERDBTAB
  2
AmdtBrowserDbTab
  3
McadcomServices
 90
        0
280
     0
281
     0
  0
CLASS
  1
CBROWSERAPPOBJECT
  2
CBrowserAppObject
  3
McadcomServices
 90
        0
280
     0
281
     0
  0
CLASS
  1
DM_PLACEHOLDER
  2
AcDmSelsetPlaceholder
  3
AcMechDwgViewMgmt
 90
        0
280
     0
281
     0
  0
CLASS
  1
TABLESTYLE
  2
AcDbTableStyle
  3
ObjectDBX Classes
 90
     2047
280
     0
281
     0
  0
CLASS
  1
VAACXREFPANELOBJECT
  2
VaAcXREFPanelObject
  3
VAAC_ADDIN
 90
        0
280
     0
281
     0
  0
CLASS
  1
VAACIMAGEINVENTORY
  2
VaAcImageInventory
  3
VAAC_ADDIN
 90
        0
280
     0
281
     0
  0
CLASS
  1
AMDTNOTETEMPLATEDB
  2
AmdtNoteTemplateDB
  3
AMDT_STDIMP_MODULE_NAME
 90
        0
280
     0
281
     0
  0
CLASS
  1
ACMBOM
  2
AcmBom
  3
"AcmSymBB|Product Description: AutoCAD Mechanical 2004 DX|Company: Autodesk"
 90
    32768
280
     0
281
     0
  0
CLASS
  1
AMDTFORMULAUPDATEDISPATCHER
  2
AmdtFormulaUpdateDispatcher
  3
AcMeServices
 90
    32768
280
     0
281
     0
  0
CLASS
  1
ACMPARTLIST
  2
AcmPartList
  3
"AcmSymBB|Product Description: AutoCAD Mechanical 2004 DX|Company: Autodesk"
 90
    33791
280
     0
281
     1
  0
CLASS
  1
ACAMGFILTERDAT
  2
AcAmgFilterDat
  3
"AcadM|Product Description: AutoCAD Mechanical 2000|Company: Autodesk"
 90
    32768
280
     0
281
     0
  0
CLASS
  1
SORTENTSTABLE
  2
AcDbSortentsTable
  3
ObjectDBX Classes
 90
        0
280
     0
281
     0
  0
CLASS
  1
ACMSTANDARDANSI
  2
AcmStandardANSI
  3
"Amdt_StdImp|Product Description: AutoCAD Mechanical 2004 DX|Company: Autodesk"
 90
    32768
280
     0
281
     0
  0
CLASS
  1
ACMSURFSTANDARDANSI
  2
AcmSurfTextStdANSI
  3
"Amdt_StdImp|Product Description: AutoCAD Mechanical 2004 DX|Company: Autodesk"
 90
    32768
280
     0
281
     0
  0
CLASS
  1
ACMFCFSTANDARDANSI
  2
AcmFCFStdANSI
  3
"Amdt_StdImp|Product Description: AutoCAD Mechanical 2004 DX|Company: Autodesk"
 90
    32768
280
     0
281
     0
  0
CLASS
  1
ACMWELDSTANDARDANSI
  2
AcmWeldingStdANSI
  3
"Amdt_StdImp|Product Description: AutoCAD Mechanical 2004 DX|Company: Autodesk"
 90
    32768
280
     0
281
     0
  0
CLASS
  1
ACMIDSTANDARDANSI
  2
AcmIdStdANSI
  3
"Amdt_StdImp|Product Description: AutoCAD Mechanical 2004 DX|Company: Autodesk"
 90
    32768
280
     0
281
     0
  0
CLASS
  1
ACMDATUMSTANDARDANSI
  2
AcmDatumStdANSI
  3
"Amdt_StdImp|Product Description: AutoCAD Mechanical 2004 DX|Company: Autodesk"
 90
    32768
280
     0
281
     0
  0
CLASS
  1
ACMBOMSTANDARDANSI
  2
AcmBOMStdANSI
  3
"Amdt_StdImp|Product Description: AutoCAD Mechanical 2004 DX|Company: Autodesk"
 90
    32768
280
     0
281
     0
  0
CLASS
  1
ACMDETAILSTANDARDANSI
  2
AmdtDetailSymStdANSI
  3
"Amdt_StdImp|Product Description: AutoCAD Mechanical 2004 DX|Company: Autodesk"
 90
    32768
280
     0
281
     0
  0
CLASS
  1
ACMSECTIONSTANDARDANSI
  2
AmdtSectionSymStdANSI
  3
"Amdt_StdImp|Product Description: AutoCAD Mechanical 2004 DX|Company: Autodesk"
 90
    32768
280
     0
281
     0
  0
CLASS
  1
ACMCENTERLINESTANDARDANSI
  2
AmdtCenterLineStdANSI
  3
"Amdt_StdImp|Product Description: AutoCAD Mechanical 2004 DX|Company: Autodesk"
 90
    32768
280
     0
281
     0
  0
CLASS
  1
ACMTHREADLINESTANDARDANSI
  2
AmdtThreadLineStdANSI
  3
"Amdt_StdImp|Product Description: AutoCAD Mechanical 2004 DX|Company: Autodesk"
 90
    32768
280
     0
281
     0
  0
CLASS
  1
ACMNOTESTANDARDANSI
  2
AmdtNoteStdANSI
  3
"Amdt_StdImp|Product Description: AutoCAD Mechanical 2004 DX|Company: Autodesk"
 90
    32768
280
     0
281
     0
  0
CLASS
  1
ACAMGHOLECHARTSTDANSI
  2
AcAmgHoleChartStdANSI
  3
ACMSYMBB_MODULE_NAME
 90
    32768
280
     0
281
     0
  0
CLASS
  1
ACMSTANDARDJIS
  2
AcmStandardJIS
  3
"Amdt_StdImp|Product Description: AutoCAD Mechanical 2004 DX|Company: Autodesk"
 90
    32768
280
     0
281
     0
  0
CLASS
  1
ACMSURFSTANDARDJIS
  2
AcmSurfTextStdJIS
  3
"Amdt_StdImp|Product Description: AutoCAD Mechanical 2004 DX|Company: Autodesk"
 90
    32768
280
     0
281
     0
  0
CLASS
  1
ACMFCFSTANDARDJIS
  2
AcmFCFStdJIS
  3
"Amdt_StdImp|Product Description: AutoCAD Mechanical 2004 DX|Company: Autodesk"
 90
    32768
280
     0
281
     0
  0
CLASS
  1
ACMWELDSTANDARDJIS
  2
AcmWeldingStdJIS
  3
"Amdt_StdImp|Product Description: AutoCAD Mechanical 2004 DX|Company: Autodesk"
 90
    32768
280
     0
281
     0
  0
CLASS
  1
ACMIDSTANDARDJIS
  2
AcmIdStdJIS
  3
"Amdt_StdImp|Product Description: AutoCAD Mechanical 2004 DX|Company: Autodesk"
 90
    32768
280
     0
281
     0
  0
CLASS
  1
ACMDATUMSTANDARDJIS
  2
AcmDatumStdJIS
  3
"Amdt_StdImp|Product Description: AutoCAD Mechanical 2004 DX|Company: Autodesk"
 90
    32768
280
     0
281
     0
  0
CLASS
  1
ACMBOMSTANDARDJIS
  2
AcmBOMStdJIS
  3
"Amdt_StdImp|Product Description: AutoCAD Mechanical 2004 DX|Company: Autodesk"
 90
    32768
280
     0
281
     0
  0
CLASS
  1
ACMDETAILSTANDARDJIS
  2
AmdtDetailSymStdJIS
  3
"Amdt_StdImp|Product Description: AutoCAD Mechanical 2004 DX|Company: Autodesk"
 90
    32768
280
     0
281
     0
  0
CLASS
  1
ACMSECTIONSTANDARDJIS
  2
AmdtSectionSymStdJIS
  3
"Amdt_StdImp|Product Description: AutoCAD Mechanical 2004 DX|Company: Autodesk"
 90
    32768
280
     0
281
     0
  0
CLASS
  1
ACMCENTERLINESTANDARDJIS
  2
AmdtCenterLineStdJIS
  3
"Amdt_StdImp|Product Description: AutoCAD Mechanical 2004 DX|Company: Autodesk"
 90
    32768
280
     0
281
     0
  0
CLASS
  1
ACMTHREADLINESTANDARDJIS
  2
AmdtThreadLineStdJIS
  3
"Amdt_StdImp|Product Description: AutoCAD Mechanical 2004 DX|Company: Autodesk"
 90
    32768
280
     0
281
     0
  0
CLASS
  1
ACMNOTESTANDARDJIS
  2
AmdtNoteStdJIS
  3
"Amdt_StdImp|Product Description: AutoCAD Mechanical 2004 DX|Company: Autodesk"
 90
    32768
280
     0
281
     0
  0
CLASS
  1
ACAMGHOLECHARTSTDJIS
  2
AcAmgHoleChartStdJIS
  3
ACMSYMBB_MODULE_NAME
 90
    32768
280
     0
281
     0
  0
CLASS
  1
DIMASSOC
  2
AcDbDimAssoc
  3
"AcDbDimAssoc|Product Desc:     AcDim ARX App For Dimension|Company:          Autodesk, Inc.|WEB Address:      www.autodesk.com"
 90
        0
280
     0
281
     0
  0
CLASS
  1
AMDTEDGESTANDARDISO13715
  2
AmdtEdgeStdISO13715
  3
"Amdt_StdImp|Product Description: AutoCAD Mechanical 2004 DX|Company: Autodesk"
 90
        0
280
     0
281
     0
  0
ENDSEC
  0
SECTION
  2
TABLES
  0
TABLE
  2
VPORT
  5
8
330
0
100
AcDbSymbolTable
 70
     3
  0
VPORT
  5
AEF
330
8
100
AcDbSymbolTableRecord
100
AcDbViewportTableRecord
  2
*Active
 70
     0
 10
0.0
 20
0.0
 11
1.0
 21
1.0
 12
216.827662213168
 22
148.4942850280562
 13
0.0
 23
0.0
 14
2.5
 24
2.5
 15
10.0
 25
10.0
 16
0.0
 26
0.0
 36
1.0
 17
0.0
 27
0.0
 37
0.0
 40
269.13676311545
 41
1.621052631578947
 42
50.0
 43
0.0
 44
0.0
 50
0.0
 51
0.0
 71
    16
 72
   100
 73
     1
 74
     3
 75
     0
 76
     0
 77
     0
 78
     0
281
     0
 65
     1
110
0.0
120
0.0
130
0.0
111
1.0
121
0.0
131
0.0
112
0.0
122
1.0
132
0.0
 79
     0
146
0.0
  0
ENDTAB
  0
TABLE
  2
LTYPE
  5
5
330
0
100
AcDbSymbolTable
 70
    22
  0
LTYPE
  5
14
330
5
100
AcDbSymbolTableRecord
100
AcDbLinetypeTableRecord
  2
ByBlock
 70
     0
  3

 72
    65
 73
     0
 40
0.0
  0
LTYPE
  5
15
330
5
100
AcDbSymbolTableRecord
100
AcDbLinetypeTableRecord
  2
ByLayer
 70
     0
  3

 72
    65
 73
     0
 40
0.0
  0
LTYPE
  5
16
330
5
100
AcDbSymbolTableRecord
100
AcDbLinetypeTableRecord
  2
Continuous
 70
     0
  3
Solid line
 72
    65
 73
     0
 40
0.0
  0
LTYPE
  5
64
330
5
100
AcDbSymbolTableRecord
100
AcDbLinetypeTableRecord
  2
AM_ISO02W050
 70
     0
  3
__ __ __ __ __ __ __ __ __ __ __ __ __ __ __
 72
    65
 73
     2
 40
7.5
 49
6.0
 74
     0
 49
-1.5
 74
     0
  0
LTYPE
  5
65
330
5
100
AcDbSymbolTableRecord
100
AcDbLinetypeTableRecord
  2
AM_ISO08W050
 70
     0
  3
____ . ____ . ____ . ____ . ____ . ____ . ____
 72
    65
 73
     4
 40
18.0
 49
12.0
 74
     0
 49
-1.5
 74
     0
 49
3.0
 74
     0
 49
-1.5
 74
     0
  0
LTYPE
  5
66
330
5
100
AcDbSymbolTableRecord
100
AcDbLinetypeTableRecord
  2
AM_ISO09W050
 70
     0
  3
_____ . . _____ . . _____ . . ____ .. ____
 72
    65
 73
     6
 40
22.5
 49
12.0
 74
     0
 49
-1.5
 74
     0
 49
3.0
 74
     0
 49
-1.5
 74
     0
 49
3.0
 74
     0
 49
-1.5
 74
     0
  0
LTYPE
  5
67
330
5
100
AcDbSymbolTableRecord
100
AcDbLinetypeTableRecord
  2
Amconstr
 70
     0
  3
_______________________
 72
    65
 73
     2
 40
9999.0
 49
9999.0
 74
     0
 49
0.0
 74
     0
  0
LTYPE
  5
68
330
5
100
AcDbSymbolTableRecord
100
AcDbLinetypeTableRecord
  2
AM_ISO08W050x2
 70
     0
  3
__ . __ . __ . __ . __ . __
 72
    65
 73
     4
 40
9.0
 49
6.0
 74
     0
 49
-0.75
 74
     0
 49
1.5
 74
     0
 49
-0.75
 74
     0
  0
LTYPE
  5
69
330
5
100
AcDbSymbolTableRecord
100
AcDbLinetypeTableRecord
  2
AM_ISO02W050x2
 70
     0
  3
 _ _ _ _ _ _ _ _ _ _ _ _
 72
    65
 73
     2
 40
3.75
 49
3.0
 74
     0
 49
-0.75
 74
     0
  0
LTYPE
  5
6C
330
5
100
AcDbSymbolTableRecord
100
AcDbLinetypeTableRecord
  2
Amzigzag
 70
     0
  3
/\/-/\/-/\/-/\/-/\/-/\/
 72
    65
 73
     2
 40
11.0001
 49
0.0001
 74
     4
 75
   135
340
6B
 46
0.04
 50
0.0
 44
0.0
 45
0.0
 49
-11.0
 74
     0
  0
LTYPE
  5
7A
330
5
100
AcDbSymbolTableRecord
100
AcDbLinetypeTableRecord
  2
ACISOWELD
 70
     0
  3
_ _ _ _ _
 72
    65
 73
     2
 40
2.0
 49
2.0
 74
     0
 49
-1.0
 74
     0
  0
LTYPE
  5
7B
330
5
100
AcDbSymbolTableRecord
100
AcDbLinetypeTableRecord
  2
ACISOTGB
 70
     0
  3
__ . . __ . .
 72
    65
 73
     6
 40
9.0
 49
4.0
 74
     0
 49
-1.0
 74
     0
 49
1.0
 74
     0
 49
-1.0
 74
     0
 49
1.0
 74
     0
 49
-1.0
 74
     0
  0
LTYPE
  5
7C
330
5
100
AcDbSymbolTableRecord
100
AcDbLinetypeTableRecord
  2
ACISOTGL
 70
     0
  3
_ _ _ _ _
 72
    65
 73
     2
 40
3.0
 49
2.0
 74
     0
 49
-1.0
 74
     0
  0
LTYPE
  5
7E
330
5
100
AcDbSymbolTableRecord
100
AcDbLinetypeTableRecord
  2
CENTER
 70
     0
  3
__ . __
 72
    65
 73
     4
 40
7.0
 49
4.0
 74
     0
 49
-1.0
 74
     0
 49
1.0
 74
     0
 49
-1.0
 74
     0
  0
LTYPE
  5
D8
330
5
100
AcDbSymbolTableRecord
100
AcDbLinetypeTableRecord
  2
HIDDEN
 70
     0
  3
Hidden __ __ __ __ __ __ __ __ __ __ __ __ __ _
 72
    65
 73
     2
 40
9.524999999999998
 49
6.349999999999999
 74
     0
 49
-3.174999999999999
 74
     0
  0
LTYPE
  5
D9
330
5
100
AcDbSymbolTableRecord
100
AcDbLinetypeTableRecord
  2
PHANTOM2
 70
     0
  3
Phantom (.5x) ___ _ _ ___ _ _ ___ _ _ ___ _ _
 72
    65
 73
     6
 40
31.75
 49
15.875
 74
     0
 49
-3.174999999999999
 74
     0
 49
3.174999999999999
 74
     0
 49
-3.174999999999999
 74
     0
 49
3.174999999999999
 74
     0
 49
-3.174999999999999
 74
     0
  0
LTYPE
  5
2AE
330
5
100
AcDbSymbolTableRecord
100
AcDbLinetypeTableRecord
  2
CENTER2
 70
     0
  3
Center (.5x) ___ _ ___ _ ___ _ ___ _ ___ _ ___
 72
    65
 73
     4
 40
6.0
 49
3.75
 74
     0
 49
-0.75
 74
     0
 49
0.75
 74
     0
 49
-0.75
 74
     0
  0
LTYPE
  5
2AF
330
5
100
AcDbSymbolTableRecord
100
AcDbLinetypeTableRecord
  2
HIDDEN2
 70
     0
  3
Hidden (.5x) _ _ _ _ _ _ _ _ _ _ _ _ _ _ _ _ _
 72
    65
 73
     2
 40
2.25
 49
1.5
 74
     0
 49
-0.75
 74
     0
  0
LTYPE
  5
2B0
330
5
100
AcDbSymbolTableRecord
100
AcDbLinetypeTableRecord
  2
Amzigzag2
 70
     0
  3
/\/-/\/-/\/-/\/-/\/-/\/
 72
    65
 73
     2
 40
0.4401
 49
0.0001
 74
     4
 75
   135
340
6B
 46
0.0016
 50
0.0
 44
0.0
 45
0.0
 49
-0.4400000000000001
 74
     0
  0
LTYPE
  5
2B1
330
5
100
AcDbSymbolTableRecord
100
AcDbLinetypeTableRecord
  2
ACANSTGB
 70
     0
  3
__ . . __ . .
 72
    65
 73
     6
 40
0.35433070866
 49
0.15748031496
 74
     0
 49
-0.03937007874
 74
     0
 49
0.03937007874
 74
     0
 49
-0.03937007874
 74
     0
 49
0.03937007874
 74
     0
 49
-0.03937007874
 74
     0
  0
LTYPE
  5
2B2
330
5
100
AcDbSymbolTableRecord
100
AcDbLinetypeTableRecord
  2
ACANSTGL
 70
     0
  3
_ _ _ _ _
 72
    65
 73
     2
 40
0.11811023622
 49
0.07874015748
 74
     0
 49
-0.03937007874
 74
     0
  0
LTYPE
  5
3EA
330
5
100
AcDbSymbolTableRecord
100
AcDbLinetypeTableRecord
  2
ACJISTGB
 70
     0
  3
__ . . __ . .
 72
    65
 73
     6
 40
9.0
 49
4.0
 74
     0
 49
-1.0
 74
     0
 49
1.0
 74
     0
 49
-1.0
 74
     0
 49
1.0
 74
     0
 49
-1.0
 74
     0
  0
LTYPE
  5
3EB
330
5
100
AcDbSymbolTableRecord
100
AcDbLinetypeTableRecord
  2
ACJISTGL
 70
     0
  3
_ _ _ _ _
 72
    65
 73
     2
 40
3.0
 49
2.0
 74
     0
 49
-1.0
 74
     0
  0
LTYPE
  5
74A
330
5
100
AcDbSymbolTableRecord
100
AcDbLinetypeTableRecord
  2
DASHED
 70
     0
  3
__ __ __ __ __ __ __ __ __ __ __ __ __ __ __
 72
    65
 73
     2
 40
3.5
 49
2.0
 74
     0
 49
-1.5
 74
     0
  0
ENDTAB
  0
TABLE
  2
LAYER
  5
2
102
{ACAD_XDICTIONARY
360
21F
102
}
330
0
100
AcDbSymbolTable
 70
    23
  0
LAYER
  5
10
330
2
100
AcDbSymbolTableRecord
100
AcDbLayerTableRecord
  2
0
 70
     0
 62
     7
  6
Continuous
370
    -3
390
F
  0
LAYER
  5
1B0
330
2
100
AcDbSymbolTableRecord
100
AcDbLayerTableRecord
  2
AM_5
 70
     0
 62
     3
  6
Continuous
370
    25
390
F
  0
LAYER
  5
21E
330
2
100
AcDbSymbolTableRecord
100
AcDbLayerTableRecord
  2
AM_0
 70
     0
 62
     7
  6
Continuous
370
    30
390
F
  0
LAYER
  5
2B3
330
2
100
AcDbSymbolTableRecord
100
AcDbLayerTableRecord
  2
図枠
 70
     0
 62
     7
  6
Continuous
370
    50
390
F
  0
LAYER
  5
2B4
330
2
100
AcDbSymbolTableRecord
100
AcDbLayerTableRecord
  2
LAYER002
 70
     4
 62
     7
  6
Continuous
370
    -3
390
F
  0
LAYER
  5
2B5
330
2
100
AcDbSymbolTableRecord
100
AcDbLayerTableRecord
  2
AM_CL
 70
     4
 62
     1
  6
Amconstr
370
    25
390
F
  0
LAYER
  5
2B6
330
2
100
AcDbSymbolTableRecord
100
AcDbLayerTableRecord
  2
AM_6
 70
     0
 62
     2
  6
Continuous
370
    35
390
F
  0
LAYER
  5
2B7
330
2
100
AcDbSymbolTableRecord
100
AcDbLayerTableRecord
  2
細線
 70
     0
 62
    14
  6
Continuous
370
    25
390
F
  0
LAYER
  5
2B8
330
2
100
AcDbSymbolTableRecord
100
AcDbLayerTableRecord
  2
実線
 70
     0
 62
     7
  6
Continuous
370
    35
390
F
  0
LAYER
  5
2B9
330
2
100
AcDbSymbolTableRecord
100
AcDbLayerTableRecord
  2
破線
 70
     0
 62
     6
  6
HIDDEN
370
    25
390
F
  0
LAYER
  5
2BA
330
2
100
AcDbSymbolTableRecord
100
AcDbLayerTableRecord
  2
中心線
 70
     0
 62
     4
  6
CENTER
370
    25
390
F
  0
LAYER
  5
2BB
330
2
100
AcDbSymbolTableRecord
100
AcDbLayerTableRecord
  2
AM_4
 70
     0
 62
     3
  6
Continuous
370
    25
390
F
  0
LAYER
  5
2BC
330
2
100
AcDbSymbolTableRecord
100
AcDbLayerTableRecord
  2
ハッチング
 70
     0
 62
     1
  6
Continuous
370
    25
390
F
  0
LAYER
  5
2BD
330
2
100
AcDbSymbolTableRecord
100
AcDbLayerTableRecord
  2
2点鎖線
 70
     0
 62
     3
  6
AM_ISO09W050
370
    25
390
F
  0
LAYER
  5
2BE
330
2
100
AcDbSymbolTableRecord
100
AcDbLayerTableRecord
  2
AM_2
 70
     0
 62
     5
  6
Continuous
370
    50
390
F
  0
LAYER
  5
3EC
330
2
100
AcDbSymbolTableRecord
100
AcDbLayerTableRecord
  2
AM_BOR
 70
     0
 62
     7
  6
Continuous
370
    50
390
F
  0
LAYER
  5
3ED
330
2
100
AcDbSymbolTableRecord
100
AcDbLayerTableRecord
  2
LAYER001
 70
     0
 62
     7
  6
Continuous
370
    -3
390
F
  0
LAYER
  5
3EE
330
2
100
AcDbSymbolTableRecord
100
AcDbLayerTableRecord
  2
LAYER010
 70
     0
 62
     7
  6
Continuous
370
    -3
390
F
  0
LAYER
  5
3EF
330
2
100
AcDbSymbolTableRecord
100
AcDbLayerTableRecord
  2
Defpoints
 70
     0
 62
     7
  6
Continuous
290
     0
370
    -3
390
F
  0
LAYER
  5
74B
330
2
100
AcDbSymbolTableRecord
100
AcDbLayerTableRecord
  2
一点鎖線
 70
     0
 62
     2
  6
CENTER
370
    -3
390
F
  0
LAYER
  5
74C
330
2
100
AcDbSymbolTableRecord
100
AcDbLayerTableRecord
  2
寸法
 70
     0
 62
     4
  6
Continuous
370
    -3
390
F
  0
LAYER
  5
74D
330
2
100
AcDbSymbolTableRecord
100
AcDbLayerTableRecord
  2
注釈
 70
     0
 62
     4
  6
Continuous
370
    -3
390
F
  0
LAYER
  5
74E
330
2
100
AcDbSymbolTableRecord
100
AcDbLayerTableRecord
  2
AV
 70
     0
 62
     7
  6
Continuous
370
    -3
390
F
  0
ENDTAB
  0
TABLE
  2
STYLE
  5
3
330
0
100
AcDbSymbolTable
 70
    14
  0
STYLE
  5
11
330
3
100
AcDbSymbolTableRecord
100
AcDbTextStyleTableRecord
  2
STANDARD
 70
     0
 40
0.0
 41
1.0
 50
0.0
 71
     0
 42
1.0
  3
ISOCP.SHX
  4
EXTFONT.SHX
  0
STYLE
  5
6B
330
3
100
AcDbSymbolTableRecord
100
AcDbTextStyleTableRecord
  2

 70
     1
 40
0.0
 41
1.0
 50
0.0
 71
     0
 42
2.5
  3
ltypeshp.shx
  4

  0
STYLE
  5
6D
330
3
100
AcDbSymbolTableRecord
100
AcDbTextStyleTableRecord
  2
ACISOTS
 70
     0
 40
1.0
 41
1.0
 50
0.0
 71
     0
 42
1.0
  3
isocp.shx
  4
extfont.shx
  0
STYLE
  5
79
330
3
100
AcDbSymbolTableRecord
100
AcDbTextStyleTableRecord
  2
ACISOGDT
 70
     0
 40
0.0
 41
1.0
 50
0.0
 71
     0
 42
2.5
  3
amgdt.shx
  4
extfont.shx
  0
STYLE
  5
1F8
330
3
100
AcDbSymbolTableRecord
100
AcDbTextStyleTableRecord
  2
USER1
 70
     0
 40
0.0
 41
1.0
 50
0.0
 71
     0
 42
1.0
  3
TXT.SHX
  4

  0
STYLE
  5
1F9
330
3
100
AcDbSymbolTableRecord
100
AcDbTextStyleTableRecord
  2
USER2
 70
     0
 40
0.0
 41
1.0
 50
0.0
 71
     0
 42
1.0
  3
SIMPLEX.SHX
  4

  0
STYLE
  5
1FA
330
3
100
AcDbSymbolTableRecord
100
AcDbTextStyleTableRecord
  2
USER3
 70
     0
 40
0.0
 41
1.0
 50
0.0
 71
     0
 42
1.0
  3
ITALIC.SHX
  4

  0
STYLE
  5
2BF
330
3
100
AcDbSymbolTableRecord
100
AcDbTextStyleTableRecord
  2
ACANSTS
 70
     0
 40
1.0
 41
1.0
 50
0.0
 71
     0
 42
3.2
  3
romans.shx
  4
extfont.shx
  0
STYLE
  5
2C0
330
3
100
AcDbSymbolTableRecord
100
AcDbTextStyleTableRecord
  2
ACANSGDT
 70
     0
 40
0.0
 41
1.0
 50
0.0
 71
     0
 42
3.2
  3
amgdtans.shx
  4

  0
STYLE
  5
3F0
330
3
100
AcDbSymbolTableRecord
100
AcDbTextStyleTableRecord
  2
ACJISTS
 70
     0
 40
1.0
 41
1.0
 50
0.0
 71
     0
 42
2.5
  3
isocp.shx
  4
extfont.shx
  0
STYLE
  5
3F1
330
3
100
AcDbSymbolTableRecord
100
AcDbTextStyleTableRecord
  2
ACJISGDT
 70
     0
 40
0.0
 41
1.0
 50
0.0
 71
     0
 42
2.5
  3
amgdt.shx
  4
extfont.shx
  0
STYLE
  5
3F2
330
3
100
AcDbSymbolTableRecord
100
AcDbTextStyleTableRecord
  2
スタイル1
 70
     0
 40
0.0
 41
1.0
 50
0.0
 71
     0
 42
3.5
  3
MS PGothic.ttf
  4

1001
ACAD
1000
MS PGothic
1071
    32818
  0
STYLE
  5
74F
330
3
100
AcDbSymbolTableRecord
100
AcDbTextStyleTableRecord
  2
MX_NOTE_STANDARD
 70
     0
 40
0.0
 41
1.0
 50
0.0
 71
     0
 42
3.200000047683714
  3
txt.shx
  4
extfont.shx
  0
STYLE
  5
750
330
3
100
AcDbSymbolTableRecord
100
AcDbTextStyleTableRecord
  2
MX_DIMTXSTY_2
 70
     0
 40
0.0
 41
1.05
 50
0.0
 71
     0
 42
3.200000047683714
  3
txt.shx
  4
extfont.shx
  0
ENDTAB
  0
TABLE
  2
VIEW
  5
6
330
0
100
AcDbSymbolTable
 70
     6
  0
VIEW
  5
513
330
6
100
AcDbSymbolTableRecord
100
AcDbViewTableRecord
  2
AM_VIEW1
 70
     0
 40
133.5
 10
126.0095394736842
 20
215.2500000000001
 41
212.0190789473685
 11
0.0
 21
0.0
 31
1.0
 12
0.0
 22
0.0
 32
0.0
 42
50.0
 43
0.0
 44
0.0
 50
0.0
 71
    16
281
     0
 72
     0
  0
VIEW
  5
514
330
6
100
AcDbSymbolTableRecord
100
AcDbViewTableRecord
  2
AM_VIEW2
 70
     0
 40
133.5
 10
298.9904605263157
 20
215.2500000000001
 41
212.0190789473685
 11
0.0
 21
0.0
 31
1.0
 12
0.0
 22
0.0
 32
0.0
 42
50.0
 43
0.0
 44
0.0
 50
0.0
 71
    16
281
     0
 72
     0
  0
VIEW
  5
515
330
6
100
AcDbSymbolTableRecord
100
AcDbViewTableRecord
  2
AM_VIEW3
 70
     0
 40
133.5
 10
126.0095394736842
 20
81.75000000000002
 41
212.0190789473685
 11
0.0
 21
0.0
 31
1.0
 12
0.0
 22
0.0
 32
0.0
 42
50.0
 43
0.0
 44
0.0
 50
0.0
 71
    16
281
     0
 72
     0
  0
VIEW
  5
516
330
6
100
AcDbSymbolTableRecord
100
AcDbViewTableRecord
  2
AM_VIEW4
 70
     0
 40
133.5
 10
298.9904605263157
 20
81.75000000000002
 41
212.0190789473685
 11
0.0
 21
0.0
 31
1.0
 12
0.0
 22
0.0
 32
0.0
 42
50.0
 43
0.0
 44
0.0
 50
0.0
 71
    16
281
     0
 72
     0
  0
VIEW
  5
517
330
6
100
AcDbSymbolTableRecord
100
AcDbViewTableRecord
  2
AM_VIEW5
 70
     0
 40
133.5
 10
212.5
 20
148.5
 41
212.0190789473685
 11
0.0
 21
0.0
 31
1.0
 12
0.0
 22
0.0
 32
0.0
 42
50.0
 43
0.0
 44
0.0
 50
0.0
 71
    16
281
     0
 72
     0
  0
VIEW
  5
518
330
6
100
AcDbSymbolTableRecord
100
AcDbViewTableRecord
  2
AM_VIEW6
 70
     0
 40
266.9973300000001
 10
212.5
 20
148.5
 41
424.0339175131579
 11
0.0
 21
0.0
 31
1.0
 12
0.0
 22
0.0
 32
0.0
 42
50.0
 43
0.0
 44
0.0
 50
0.0
 71
    16
281
     0
 72
     0
  0
ENDTAB
  0
TABLE
  2
UCS
  5
7
330
0
100
AcDbSymbolTable
 70
     0
  0
ENDTAB
  0
TABLE
  2
APPID
  5
9
330
0
100
AcDbSymbolTable
 70
    24
  0
APPID
  5
12
330
9
100
AcDbSymbolTableRecord
100
AcDbRegAppTableRecord
  2
ACAD
 70
     0
  0
APPID
  5
46
330
9
100
AcDbSymbolTableRecord
100
AcDbRegAppTableRecord
  2
MCAD_NO_VIS
 70
     0
  0
APPID
  5
47
330
9
100
AcDbSymbolTableRecord
100
AcDbRegAppTableRecord
  2
ACAD_TEMP_GRAPHIC
 70
     0
  0
APPID
  5
58
330
9
100
AcDbSymbolTableRecord
100
AcDbRegAppTableRecord
  2
ACATTRIBSERVICES
 70
     0
  0
APPID
  5
EE
330
9
100
AcDbSymbolTableRecord
100
AcDbRegAppTableRecord
  2
AD_DRAW
 70
     0
  0
APPID
  5
10C
330
9
100
AcDbSymbolTableRecord
100
AcDbRegAppTableRecord
  2
DESIGNERASSEMBLIES
 70
     0
  0
APPID
  5
111
330
9
100
AcDbSymbolTableRecord
100
AcDbRegAppTableRecord
  2
ACADM_DIM_EDIT
 70
     0
  0
APPID
  5
112
330
9
100
AcDbSymbolTableRecord
100
AcDbRegAppTableRecord
  2
AMDT_DM_ADJ
 70
     0
  0
APPID
  5
2C8
330
9
100
AcDbSymbolTableRecord
100
AcDbRegAppTableRecord
  2
GENIUS_GENREC_14
 70
     0
  0
APPID
  5
2C9
330
9
100
AcDbSymbolTableRecord
100
AcDbRegAppTableRecord
  2
GENIUS_GENOBJ-N-REC_13
 70
     0
  0
APPID
  5
2CA
330
9
100
AcDbSymbolTableRecord
100
AcDbRegAppTableRecord
  2
GENIUS_GENODEF_13
 70
     0
  0
APPID
  5
2CB
330
9
100
AcDbSymbolTableRecord
100
AcDbRegAppTableRecord
  2
DCO15
 70
     0
  0
APPID
  5
2CC
330
9
100
AcDbSymbolTableRecord
100
AcDbRegAppTableRecord
  2
ACAD_PSEXT
 70
     0
  0
APPID
  5
2CD
330
9
100
AcDbSymbolTableRecord
100
AcDbRegAppTableRecord
  2
GENIUS_GENOBJ-N-HTC_13
 70
     0
  0
APPID
  5
2CE
330
9
100
AcDbSymbolTableRecord
100
AcDbRegAppTableRecord
  2
GENIUS_GENHATCH_13
 70
     0
  0
APPID
  5
50E
330
9
100
AcDbSymbolTableRecord
100
AcDbRegAppTableRecord
  2
GENIUS_GENOLIS_13
 70
     0
  0
APPID
  5
50F
330
9
100
AcDbSymbolTableRecord
100
AcDbRegAppTableRecord
  2
GENIUS_GENOENT_13
 70
     0
  0
APPID
  5
510
330
9
100
AcDbSymbolTableRecord
100
AcDbRegAppTableRecord
  2
GENIUS_GENOBJ-N-TIT_13
 70
     0
  0
APPID
  5
511
330
9
100
AcDbSymbolTableRecord
100
AcDbRegAppTableRecord
  2
GENIUS_GENTITLE_13
 70
     0
  0
APPID
  5
512
330
9
100
AcDbSymbolTableRecord
100
AcDbRegAppTableRecord
  2
GENIUS_GENOREF_13
 70
     0
  0
APPID
  5
519
330
9
100
AcDbSymbolTableRecord
100
AcDbRegAppTableRecord
  2
GENIUS_GENSCREG_15
 70
     0
  0
APPID
  5
51A
330
9
100
AcDbSymbolTableRecord
100
AcDbRegAppTableRecord
  2
GENIUS_GENOBJ-N-SDF_13
 70
     0
  0
APPID
  5
569
330
9
100
AcDbSymbolTableRecord
100
AcDbRegAppTableRecord
  2
GENIUS_AMGTXT_16
 70
     0
  0
APPID
  5
95D
330
9
100
AcDbSymbolTableRecord
100
AcDbRegAppTableRecord
  2
GENIUS_GENDTOL_13
 70
     0
  0
ENDTAB
  0
TABLE
  2
DIMSTYLE
  5
A
330
0
100
AcDbSymbolTable
 70
    26
100
AcDbDimStyleTable
 71
     1
340
81
  0
DIMSTYLE
105
27
330
A
100
AcDbSymbolTableRecord
100
AcDbDimStyleTableRecord
  2
ISO-25
 70
     0
 41
2.5
 42
0.625
 43
3.75
 44
1.25
 73
     0
 74
     0
 77
     1
 78
     8
140
2.5
141
2.5
143
0.03937007874016
147
0.625
171
     3
172
     1
271
     2
272
     2
274
     3
278
    44
283
     0
284
     8
340
11
  0
DIMSTYLE
105
81
330
A
100
AcDbSymbolTableRecord
100
AcDbDimStyleTableRecord
  2
AM_ISO
 70
     0
  4
"
 41
2.5
 42
1.0
 43
10.0
 44
1.0
 47
0.1
 48
0.1
 73
     0
 74
     0
 77
     1
 78
     8
 79
     2
140
3.5
141
0.0
143
0.0393701
146
0.71
147
1.5
172
     1
176
   256
177
   256
178
     2
271
     2
272
     3
274
     4
283
     0
284
     8
340
11
371
    -1
372
    -1
  0
DIMSTYLE
105
82
330
A
100
AcDbSymbolTableRecord
100
AcDbDimStyleTableRecord
  2
AM_ISO$3
 70
     0
  4
"
 41
2.5
 42
1.0
 43
10.0
 44
1.0
 47
0.1
 48
0.1
 73
     0
 77
     1
 78
     8
 79
     2
140
3.5
141
0.0
143
0.0393701
146
0.71
147
1.5
176
   256
177
   256
178
     2
271
     2
272
     3
274
     4
283
     0
284
     8
288
     1
289
     0
340
11
371
    -1
372
    -1
  0
DIMSTYLE
105
83
330
A
100
AcDbSymbolTableRecord
100
AcDbDimStyleTableRecord
  2
AM_ISO$4
 70
     0
  4
"
 41
2.5
 42
1.0
 43
10.0
 44
1.0
 47
0.1
 48
0.1
 73
     0
 77
     1
 78
     8
 79
     2
140
3.5
141
0.0
143
0.0393701
146
0.71
147
1.5
176
   256
177
   256
178
     2
271
     2
272
     3
274
     4
283
     0
284
     8
288
     1
289
     0
340
11
371
    -1
372
    -1
  0
DIMSTYLE
105
84
330
A
100
AcDbSymbolTableRecord
100
AcDbDimStyleTableRecord
  2
AM_ISO$6
 70
     0
  4
"
 41
2.5
 42
1.0
 43
10.0
 44
1.0
 47
0.1
 48
0.1
 73
     0
 74
     0
 78
     8
 79
     2
140
3.5
141
0.0
143
0.0393701
146
0.71
147
1.5
172
     1
176
   256
177
   256
178
     2
271
     2
272
     3
274
     4
283
     0
284
     8
340
11
371
    -1
372
    -1
  0
DIMSTYLE
105
85
330
A
100
AcDbSymbolTableRecord
100
AcDbDimStyleTableRecord
  2
AM_ISO$7
 70
     0
  4
"
 41
2.5
 42
1.0
 43
10.0
 44
1.0
 47
0.1
 48
0.1
 73
     0
 74
     0
 77
     1
 78
     8
 79
     2
140
5.0
141
0.0
143
0.0393701
146
0.71
147
1.5
172
     1
176
   256
177
   256
178
     2
271
     2
272
     3
274
     4
283
     0
284
     8
340
11
371
    -1
372
    -1
  0
DIMSTYLE
105
86
330
A
100
AcDbSymbolTableRecord
100
AcDbDimStyleTableRecord
  2
AM_ISO$SF
 70
     0
  4
"
 41
2.5
 42
1.0
 43
10.0
 44
1.0
 47
0.1
 48
0.1
 73
     0
 74
     0
 75
     1
 76
     1
 77
     1
 78
     8
 79
     2
140
3.5
141
0.0
143
0.0393701
146
0.71
147
1.5
172
     1
176
   256
177
   256
178
     2
271
     2
272
     3
274
     4
283
     0
284
     8
340
11
371
    -1
372
    -1
  0
DIMSTYLE
105
8B
330
A
100
AcDbSymbolTableRecord
100
AcDbDimStyleTableRecord
  2
AM_ISO$SH
 70
     0
  4
"
 41
2.5
 42
1.0
 43
10.0
 44
1.0
 47
0.1
 48
0.1
 73
     0
 74
     0
 75
     1
 76
     1
 77
     1
 78
     8
 79
     2
140
3.5
141
0.0
143
0.0393701
144
2.0
146
0.71
147
1.5
172
     1
173
     1
176
   256
177
   256
178
     2
271
     2
272
     3
274
     4
283
     0
284
     8
340
11
343
87
371
    -1
372
    -1
  0
DIMSTYLE
105
2C1
330
A
100
AcDbSymbolTableRecord
100
AcDbDimStyleTableRecord
  2
STANDARD
 70
     0
 41
1.0
 42
2.54
 44
2.54
 73
     0
 74
     0
 77
     1
140
3.200000047683715
145
1.0
147
1.600000023841857
173
     1
271
     2
275
     1
340
11
  0
DIMSTYLE
105
2C2
330
A
100
AcDbSymbolTableRecord
100
AcDbDimStyleTableRecord
  2
AM_ANSI
 70
     0
  4
mm
 41
0.1
 42
0.05
 43
0.5
 44
0.1
 47
0.1
 48
0.1
 78
     7
 79
     2
140
0.12
141
0.0
146
0.71
147
0.06
176
   256
177
   256
178
     2
274
     4
284
     7
340
11
371
    -1
372
    -1
  0
DIMSTYLE
105
2C3
330
A
100
AcDbSymbolTableRecord
100
AcDbDimStyleTableRecord
  2
AM_ANSI$3
 70
     0
  4
mm
 41
0.1
 42
0.05
 43
0.5
 44
0.1
 47
0.1
 48
0.1
 78
     7
 79
     2
140
0.12
141
0.0
146
0.71
147
0.06
176
   256
177
   256
178
     2
274
     4
284
     7
288
     1
289
     0
340
11
371
    -1
372
    -1
  0
DIMSTYLE
105
2C4
330
A
100
AcDbSymbolTableRecord
100
AcDbDimStyleTableRecord
  2
AM_ANSI$4
 70
     0
  4
mm
 41
0.1
 42
0.05
 43
0.5
 44
0.1
 47
0.1
 48
0.1
 78
     7
 79
     2
140
0.12
141
0.0
146
0.71
147
0.06
176
   256
177
   256
178
     2
274
     4
284
     7
288
     1
289
     0
340
11
371
    -1
372
    -1
  0
DIMSTYLE
105
2C5
330
A
100
AcDbSymbolTableRecord
100
AcDbDimStyleTableRecord
  2
AM_ANSI$7
 70
     0
  4
mm
 41
0.1
 42
0.05
 43
0.5
 44
0.1
 47
0.1
 48
0.1
 78
     7
 79
     2
140
0.24
141
0.0
146
0.71
147
0.06
176
   256
177
   256
178
     2
274
     4
284
     7
340
11
371
    -1
372
    -1
  0
DIMSTYLE
105
2C6
330
A
100
AcDbSymbolTableRecord
100
AcDbDimStyleTableRecord
  2
AM_ANSI$SF
 70
     0
  4
mm
 41
0.1
 42
0.05
 43
0.5
 44
0.1
 47
0.1
 48
0.1
 75
     1
 76
     1
 78
     7
 79
     2
140
0.12
141
0.0
146
0.71
147
0.06
176
   256
177
   256
178
     2
274
     4
284
     7
340
11
371
    -1
372
    -1
  0
DIMSTYLE
105
2C7
330
A
100
AcDbSymbolTableRecord
100
AcDbDimStyleTableRecord
  2
AM_ANSI$SH
 70
     0
  4
mm
 41
0.1
 42
0.05
 43
0.5
 44
0.1
 47
0.1
 48
0.1
 75
     1
 76
     1
 78
     7
 79
     2
140
0.12
141
0.0
146
0.71
147
0.06
173
     1
176
   256
177
   256
178
     2
274
     4
284
     7
340
11
343
87
371
    -1
372
    -1
  0
DIMSTYLE
105
3F3
330
A
100
AcDbSymbolTableRecord
100
AcDbDimStyleTableRecord
  2
AM_JIS
 70
     0
  4
"
 41
2.5
 42
1.0
 43
10.0
 44
1.0
 47
0.1
 48
0.1
 73
     0
 74
     0
 77
     3
 78
     8
 79
     2
140
3.5
141
0.0
143
0.0393701
146
0.71
147
1.5
172
     1
176
   256
177
   256
178
     2
271
     2
272
     3
274
     4
283
     0
284
     8
340
11
341
2F8
342
2F8
343
2F8
344
2F8
371
    -1
372
    -1
  0
DIMSTYLE
105
3F4
330
A
100
AcDbSymbolTableRecord
100
AcDbDimStyleTableRecord
  2
AM_JIS$3
 70
     0
  4
"
 41
2.5
 42
1.0
 43
10.0
 44
1.0
 47
0.1
 48
0.1
 73
     0
 77
     3
 78
     8
 79
     2
140
3.5
141
0.0
143
0.0393701
146
0.71
147
1.5
176
   256
177
   256
178
     2
271
     2
272
     3
274
     4
283
     0
284
     8
288
     1
289
     0
340
11
341
2F8
342
2F8
343
2F8
344
2F8
371
    -1
372
    -1
  0
DIMSTYLE
105
3F5
330
A
100
AcDbSymbolTableRecord
100
AcDbDimStyleTableRecord
  2
AM_JIS$4
 70
     0
  4
"
 41
2.5
 42
1.0
 43
10.0
 44
1.0
 47
0.1
 48
0.1
 73
     0
 77
     3
 78
     8
 79
     2
140
3.5
141
0.0
143
0.0393701
146
0.71
147
1.5
176
   256
177
   256
178
     2
271
     2
272
     3
274
     4
283
     0
284
     8
288
     1
289
     0
340
11
341
2F8
342
2F8
343
2F8
344
2F8
371
    -1
372
    -1
  0
DIMSTYLE
105
3F6
330
A
100
AcDbSymbolTableRecord
100
AcDbDimStyleTableRecord
  2
AM_JIS$6
 70
     0
  4
"
 41
2.5
 42
1.0
 43
10.0
 44
1.0
 47
0.1
 48
0.1
 73
     0
 74
     0
 78
     8
 79
     2
140
3.5
141
0.0
143
0.0393701
146
0.71
147
1.5
172
     1
176
   256
177
   256
178
     2
271
     2
272
     3
274
     4
283
     0
284
     8
340
11
341
2F8
342
2F8
343
2F8
344
2F8
371
    -1
372
    -1
  0
DIMSTYLE
105
3F7
330
A
100
AcDbSymbolTableRecord
100
AcDbDimStyleTableRecord
  2
AM_JIS$7
 70
     0
  4
"
 41
2.5
 42
1.0
 43
10.0
 44
1.0
 47
0.1
 48
0.1
 73
     0
 74
     0
 77
     3
 78
     8
 79
     2
140
3.5
141
0.0
143
0.0393701
146
0.71
147
1.5
172
     1
176
   256
177
   256
178
     2
271
     2
272
     3
274
     4
283
     0
284
     8
340
11
341
2F8
342
2F8
343
2F8
344
2F8
371
    -1
372
    -1
  0
DIMSTYLE
105
3F8
330
A
100
AcDbSymbolTableRecord
100
AcDbDimStyleTableRecord
  2
AM_JIS$SF
 70
     0
  4
"
 41
2.5
 42
1.0
 43
10.0
 44
1.0
 47
0.1
 48
0.1
 73
     0
 74
     0
 75
     1
 76
     1
 77
     3
 78
     8
 79
     2
140
3.5
141
0.0
143
0.0393701
146
0.71
147
1.5
172
     1
176
   256
177
   256
178
     2
271
     2
272
     3
274
     4
283
     0
284
     8
340
11
341
2F8
342
2F8
343
2F8
344
2F8
371
    -1
372
    -1
  0
DIMSTYLE
105
3F9
330
A
100
AcDbSymbolTableRecord
100
AcDbDimStyleTableRecord
  2
AM_JIS$SH
 70
     0
  4
"
 41
2.5
 42
1.0
 43
10.0
 44
1.0
 47
0.1
 48
0.1
 73
     0
 74
     0
 75
     1
 76
     1
 77
     3
 78
     8
 79
     2
140
3.5
141
0.0
143
0.0393701
144
2.0
146
0.71
147
1.5
172
     1
173
     1
176
   256
177
   256
178
     2
271
     2
272
     3
274
     4
283
     0
284
     8
340
11
341
2F8
342
2F8
343
87
344
2F8
371
    -1
372
    -1
  0
DIMSTYLE
105
3FA
330
A
100
AcDbSymbolTableRecord
100
AcDbDimStyleTableRecord
  2
AM_JIS$0
 70
     0
  4
"
 41
2.5
 42
1.0
 43
10.0
 44
1.0
 47
0.1
 48
0.1
 73
     0
 74
     0
 77
     3
 78
     8
 79
     2
140
3.5
141
0.0
143
0.0393701
146
0.71
147
1.5
172
     1
176
   256
177
   256
178
     2
271
     2
272
     3
274
     4
283
     0
284
     8
340
11
341
2F8
342
2F8
343
2F8
344
2F8
371
    -1
372
    -1
  0
DIMSTYLE
105
3FB
330
A
100
AcDbSymbolTableRecord
100
AcDbDimStyleTableRecord
  2
STANDARD$0
 70
     0
 41
1.0
 42
2.54
 44
2.54
 73
     0
 74
     0
 77
     1
140
3.200000047683715
145
1.0
147
1.600000023841857
173
     1
271
     2
275
     1
340
11
  0
DIMSTYLE
105
568
102
{ACAD_REACTORS
330
8B9
330
945
330
979
330
9CC
330
A1D
102
}
330
A
100
AcDbSymbolTableRecord
100
AcDbDimStyleTableRecord
  2
AM_ISO$0
 70
     0
  4
"
 41
2.5
 42
1.0
 43
10.0
 44
1.0
 47
0.1
 48
0.1
 73
     0
 74
     0
 77
     1
 78
     8
 79
     2
140
3.5
141
0.0
143
0.0393701
146
0.71
147
1.5
172
     1
176
   256
177
   256
178
     2
271
     2
272
     3
274
     4
283
     0
284
     8
340
11
371
    -1
372
    -1
  0
DIMSTYLE
105
751
330
A
100
AcDbSymbolTableRecord
100
AcDbDimStyleTableRecord
  2
MXDIMSTYLE
 70
     0
 41
2.5
 42
2.539999961853026
 43
3.75
 44
2.286000013351439
 73
     0
 74
     0
 77
     1
 78
     8
140
3.200000047683714
141
2.5
143
0.03937007874016
147
1.0
171
     4
172
     1
173
     1
271
     2
272
     2
274
     4
283
     0
288
     1
340
74F
341
2F8
343
2F8
344
2F8
  0
ENDTAB
  0
TABLE
  2
BLOCK_RECORD
  5
1
330
0
100
AcDbSymbolTable
 70
    14
  0
BLOCK_RECORD
  5
1F
102
{ACAD_XDICTIONARY
360
8F
102
}
330
1
100
AcDbSymbolTableRecord
100
AcDbBlockTableRecord
  2
*Model_Space
340
22
  0
BLOCK_RECORD
  5
1B
330
1
100
AcDbSymbolTableRecord
100
AcDbBlockTableRecord
  2
*Paper_Space
340
1E
  0
BLOCK_RECORD
  5
23
330
1
100
AcDbSymbolTableRecord
100
AcDbBlockTableRecord
  2
*Paper_Space0
340
26
  0
BLOCK_RECORD
  5
87
330
1
100
AcDbSymbolTableRecord
100
AcDbBlockTableRecord
  2
GENAXEH
340
0
  0
BLOCK_RECORD
  5
267
330
1
100
AcDbSymbolTableRecord
100
AcDbBlockTableRecord
  2
A$C5AA57AD5
340
0
  0
BLOCK_RECORD
  5
2CF
102
{ACAD_XDICTIONARY
360
2D8
102
}
330
1
100
AcDbSymbolTableRecord
100
AcDbBlockTableRecord
  2
帝金図面用紙HP用
340
0
102
{BLKREFS
331
2F6
102
}
  0
BLOCK_RECORD
  5
2F8
330
1
100
AcDbSymbolTableRecord
100
AcDbBlockTableRecord
  2
_Open30
340
0
  0
BLOCK_RECORD
  5
301
102
{ACAD_XDICTIONARY
360
302
102
}
330
1
100
AcDbSymbolTableRecord
100
AcDbBlockTableRecord
  2
A$C61314446
340
0
  0
BLOCK_RECORD
  5
3FC
102
{ACAD_XDICTIONARY
360
4ED
102
}
330
1
100
AcDbSymbolTableRecord
100
AcDbBlockTableRecord
  2
表題HP用
340
0
102
{BLKREFS
331
507
102
}
  0
BLOCK_RECORD
  5
708
330
1
100
AcDbSymbolTableRecord
100
AcDbBlockTableRecord
  2
_OPEN
340
0
  0
BLOCK_RECORD
  5
8BA
330
1
100
AcDbSymbolTableRecord
100
AcDbBlockTableRecord
  2
*D8
340
0
  0
BLOCK_RECORD
  5
946
330
1
100
AcDbSymbolTableRecord
100
AcDbBlockTableRecord
  2
*D9
340
0
  0
BLOCK_RECORD
  5
97A
330
1
100
AcDbSymbolTableRecord
100
AcDbBlockTableRecord
  2
*D10
340
0
  0
BLOCK_RECORD
  5
9CD
330
1
100
AcDbSymbolTableRecord
100
AcDbBlockTableRecord
  2
*D11
340
0
  0
BLOCK_RECORD
  5
A1E
330
1
100
AcDbSymbolTableRecord
100
AcDbBlockTableRecord
  2
*D12
340
0
  0
ENDTAB
  0
ENDSEC
  0
SECTION
  2
BLOCKS
  0
BLOCK
  5
20
330
1F
100
AcDbEntity
  8
0
100
AcDbBlockBegin
  2
*Model_Space
 70
     0
 10
0.0
 20
0.0
 30
0.0
  3
*Model_Space
  1

  0
ENDBLK
  5
21
330
1F
100
AcDbEntity
  8
0
100
AcDbBlockEnd
  0
BLOCK
  5
1C
330
1B
100
AcDbEntity
 67
     1
  8
0
100
AcDbBlockBegin
  2
*Paper_Space
 70
     0
 10
0.0
 20
0.0
 30
0.0
  3
*Paper_Space
  1

  0
ENDBLK
  5
1D
330
1B
100
AcDbEntity
 67
     1
  8
0
100
AcDbBlockEnd
  0
BLOCK
  5
24
330
23
100
AcDbEntity
  8
0
100
AcDbBlockBegin
  2
*Paper_Space0
 70
     0
 10
0.0
 20
0.0
 30
0.0
  3
*Paper_Space0
  1

  0
ENDBLK
  5
25
330
23
100
AcDbEntity
  8
0
100
AcDbBlockEnd
  0
BLOCK
  5
89
330
87
100
AcDbEntity
  8
0
100
AcDbBlockBegin
  2
GENAXEH
 70
     0
 10
0.0
 20
0.0
 30
0.0
  3
GENAXEH
  1

  0
LINE
  5
88
330
87
100
AcDbEntity
  8
0
100
AcDbLine
 10
-1.0
 20
0.0
 30
0.0
 11
1.0
 21
0.0
 31
0.0
  0
ENDBLK
  5
8A
330
87
100
AcDbEntity
  8
0
100
AcDbBlockEnd
  0
BLOCK
  5
268
330
267
100
AcDbEntity
  8
0
100
AcDbBlockBegin
  2
A$C5AA57AD5
 70
     0
 10
0.0
 20
0.0
 30
0.0
  3
A$C5AA57AD5
  1

  0
LINE
  5
269
330
267
100
AcDbEntity
  8
LAYER002
  6
Continuous
 62
     2
100
AcDbLine
 10
24.89633127719469
 20
6.150010828878748
 30
0.0
 11
25.04629465610089
 21
6.150010828878748
 31
0.0
  0
LINE
  5
26A
330
267
100
AcDbEntity
  8
LAYER002
  6
Continuous
 62
     2
100
AcDbLine
 10
24.89633127719469
 20
7.650010828878748
 30
0.0
 11
25.70883127719469
 21
7.650010828878748
 31
0.0
  0
LINE
  5
26B
330
267
100
AcDbEntity
  8
LAYER002
  6
Continuous
 62
     2
100
AcDbLine
 10
25.97311350375719
 20
6.150010828878748
 30
0.0
 11
26.14633127719469
 21
6.150010828878748
 31
0.0
  0
LINE
  5
26C
330
267
100
AcDbEntity
  8
LAYER002
  6
Continuous
 62
     2
100
AcDbLine
 10
24.89633127719469
 20
7.650010828878748
 30
0.0
 11
24.89633127719469
 21
6.150010828878748
 31
0.0
  0
LINE
  5
26D
330
267
100
AcDbEntity
  8
LAYER002
  6
Continuous
 62
     2
100
AcDbLine
 10
25.04629465610089
 20
7.499986414816248
 30
0.0
 11
25.04629465610089
 21
6.925004725363123
 31
0.0
  0
LINE
  5
26E
330
267
100
AcDbEntity
  8
LAYER002
  6
Continuous
 62
     2
100
AcDbLine
 10
25.04629465610089
 20
6.775010828878748
 30
0.0
 11
25.61227366000719
 21
6.775010828878748
 31
0.0
  0
LINE
  5
26F
330
267
100
AcDbEntity
  8
LAYER002
  6
Continuous
 62
     2
100
AcDbLine
 10
25.04629465610089
 20
7.499986414816248
 30
0.0
 11
25.70883127719469
 21
7.499986414816248
 31
0.0
  0
LINE
  5
270
330
267
100
AcDbEntity
  8
LAYER002
  6
Continuous
 62
     2
100
AcDbLine
 10
25.04629465610089
 20
6.925004725363123
 30
0.0
 11
25.70883127719469
 21
6.925004725363123
 31
0.0
  0
LINE
  5
271
330
267
100
AcDbEntity
  8
LAYER002
  6
Continuous
 62
     2
100
AcDbLine
 10
25.04629465610089
 20
6.775010828878748
 30
0.0
 11
25.04629465610089
 21
6.150010828878748
 31
0.0
  0
LINE
  5
272
330
267
100
AcDbEntity
  8
LAYER002
  6
Continuous
 62
     2
100
AcDbLine
 10
25.78191258815332
 20
6.781194719957397
 30
0.0
 11
26.14630773466007
 21
6.150043823504233
 31
0.0
  0
LINE
  5
273
330
267
100
AcDbEntity
  8
LAYER002
  6
Continuous
 62
     2
100
AcDbLine
 10
25.6122517034263
 20
6.775037680579032
 30
0.0
 11
25.97309155203368
 21
6.150044740613225
 31
0.0
  0
LINE
  5
274
330
267
100
AcDbEntity
  8
LAYER002
  6
Continuous
 62
     2
100
AcDbLine
 10
-0.0000005099146847
 20
7.800004725363123
 30
0.0
 11
6.299987283054065
 21
7.800004725363123
 31
0.0
  0
LINE
  5
275
330
267
100
AcDbEntity
  8
LAYER002
  6
Continuous
 62
     2
100
AcDbLine
 10
-0.0000005099146847
 20
7.800004725363123
 30
0.0
 11
-0.0000005099146847
 21
6.50001693239443
 31
0.0
  0
LINE
  5
276
330
267
100
AcDbEntity
  8
LAYER002
  6
Continuous
 62
     2
100
AcDbLine
 10
-0.0000005099146847
 20
6.50001693239443
 30
0.0
 11
2.499999490085315
 21
6.50001693239443
 31
0.0
  0
LINE
  5
277
330
267
100
AcDbEntity
  8
LAYER002
  6
Continuous
 62
     2
100
AcDbLine
 10
2.499999490085315
 20
6.50001693239443
 30
0.0
 11
2.499999490085315
 21
0.0000169323944306
 31
0.0
  0
LINE
  5
278
330
267
100
AcDbEntity
  8
LAYER002
  6
Continuous
 62
     2
100
AcDbLine
 10
3.799987283054065
 20
6.50001693239443
 30
0.0
 11
3.799987283054065
 21
0.0000169323944306
 31
0.0
  0
LINE
  5
279
330
267
100
AcDbEntity
  8
LAYER002
  6
Continuous
 62
     2
100
AcDbLine
 10
3.799987283054065
 20
6.50001693239443
 30
0.0
 11
6.299987283054065
 21
6.50001693239443
 31
0.0
  0
LINE
  5
27A
330
267
100
AcDbEntity
  8
LAYER002
  6
Continuous
 62
     2
100
AcDbLine
 10
6.299987283054065
 20
7.800004725363123
 30
0.0
 11
6.299987283054065
 21
6.50001693239443
 31
0.0
  0
LINE
  5
27B
330
267
100
AcDbEntity
  8
LAYER002
  6
Continuous
 62
     2
100
AcDbLine
 10
2.499999490085315
 20
0.0000169323944306
 30
0.0
 11
3.799987283054065
 21
0.0000169323944306
 31
0.0
  0
LINE
  5
27C
330
267
100
AcDbEntity
  8
LAYER002
  6
Continuous
 62
     2
100
AcDbLine
 10
5.60079905063219
 20
2.50001693239443
 30
0.0
 11
10.02227732211656
 21
2.50001693239443
 31
0.0
  0
LINE
  5
27D
330
267
100
AcDbEntity
  8
LAYER002
  6
Continuous
 62
     2
100
AcDbLine
 10
5.82711741000719
 20
3.800004725363123
 30
0.0
 11
8.47286936313219
 21
3.800004725363123
 31
0.0
  0
LINE
  5
27E
330
267
100
AcDbEntity
  8
LAYER002
  6
Continuous
 62
     2
100
AcDbLine
 10
8.208441908543989
 20
1.700152810507233
 30
0.0
 11
9.128686314174387
 21
0.7799084048767213
 31
0.0
  0
LINE
  5
27F
330
267
100
AcDbEntity
  8
LAYER002
  6
Continuous
 62
     2
100
AcDbLine
 10
10.49999949008531
 20
7.800004725363123
 30
0.0
 11
11.79998728305406
 21
7.800004725363123
 31
0.0
  0
LINE
  5
280
330
267
100
AcDbEntity
  8
LAYER002
  6
Continuous
 62
     2
100
AcDbLine
 10
11.79998728305406
 20
7.800004725363123
 30
0.0
 11
11.79998728305406
 21
6.50001693239443
 31
0.0
  0
LINE
  5
281
330
267
100
AcDbEntity
  8
LAYER002
  6
Continuous
 62
     2
100
AcDbLine
 10
10.49999949008531
 20
6.50001693239443
 30
0.0
 11
11.79998728305406
 21
6.50001693239443
 31
0.0
  0
LINE
  5
282
330
267
100
AcDbEntity
  8
LAYER002
  6
Continuous
 62
     2
100
AcDbLine
 10
10.49999949008531
 20
7.800004725363123
 30
0.0
 11
10.49999949008531
 21
6.50001693239443
 31
0.0
  0
LINE
  5
283
330
267
100
AcDbEntity
  8
LAYER002
  6
Continuous
 62
     2
100
AcDbLine
 10
10.49999949008531
 20
5.800004725363123
 30
0.0
 11
11.79998728305406
 21
5.800004725363123
 31
0.0
  0
LINE
  5
284
330
267
100
AcDbEntity
  8
LAYER002
  6
Continuous
 62
     2
100
AcDbLine
 10
11.79998728305406
 20
5.800004725363123
 30
0.0
 11
11.79998728305406
 21
0.0000169323944306
 31
0.0
  0
LINE
  5
285
330
267
100
AcDbEntity
  8
LAYER002
  6
Continuous
 62
     2
100
AcDbLine
 10
10.49999949008531
 20
0.0000169323944306
 30
0.0
 11
11.79998728305406
 21
0.0000169323944306
 31
0.0
  0
LINE
  5
286
330
267
100
AcDbEntity
  8
LAYER002
  6
Continuous
 62
     2
100
AcDbLine
 10
10.49999949008531
 20
5.800004725363123
 30
0.0
 11
10.49999949008531
 21
0.0000169323944306
 31
0.0
  0
LINE
  5
287
330
267
100
AcDbEntity
  8
LAYER002
  6
Continuous
 62
     2
100
AcDbLine
 10
12.49999949008531
 20
7.800004725363123
 30
0.0
 11
12.49999949008531
 21
0.0000169323944306
 31
0.0
  0
LINE
  5
288
330
267
100
AcDbEntity
  8
LAYER002
  6
Continuous
 62
     2
100
AcDbLine
 10
12.49999949008531
 20
7.800004725363123
 30
0.0
 11
13.79998728305406
 21
7.800004725363123
 31
0.0
  0
LINE
  5
289
330
267
100
AcDbEntity
  8
LAYER002
  6
Continuous
 62
     2
100
AcDbLine
 10
13.79998728305406
 20
7.800004725363123
 30
0.0
 11
13.79998728305406
 21
3.90858626833193
 31
0.0
  0
LINE
  5
28A
330
267
100
AcDbEntity
  8
LAYER002
  6
Continuous
 62
     2
100
AcDbLine
 10
13.79999753987618
 20
3.908566750528905
 30
0.0
 11
15.69143481031631
 21
5.800004020969026
 31
0.0
  0
LINE
  5
28B
330
267
100
AcDbEntity
  8
LAYER002
  6
Continuous
 62
     2
100
AcDbLine
 10
15.69143625766338
 20
5.800004725363123
 30
0.0
 11
17.52990671664781
 21
5.800004725363123
 31
0.0
  0
LINE
  5
28C
330
267
100
AcDbEntity
  8
LAYER002
  6
Continuous
 62
     2
100
AcDbLine
 10
15.45020647992731
 20
3.720315322844101
 30
0.0
 11
17.5299059676455
 21
5.800014810562231
 31
0.0
  0
LINE
  5
28D
330
267
100
AcDbEntity
  8
LAYER002
  6
Continuous
 62
     2
100
AcDbLine
 10
15.45020502569451
 20
3.720304490799207
 30
0.0
 11
17.59812375577991
 21
0.000000186535317
 31
0.0
  0
LINE
  5
28E
330
267
100
AcDbEntity
  8
LAYER002
  6
Continuous
 62
     2
100
AcDbLine
 10
16.09701487094469
 20
0.0000169323944306
 30
0.0
 11
17.59811350375719
 21
0.0000169323944306
 31
0.0
  0
LINE
  5
28F
330
267
100
AcDbEntity
  8
LAYER002
  6
Continuous
 62
     2
100
AcDbLine
 10
14.4985463981294
 20
2.768650004680011
 30
0.0
 11
16.09702664425617
 21
0.0000010531855423
 31
0.0
  0
LINE
  5
290
330
267
100
AcDbEntity
  8
LAYER002
  6
Continuous
 62
     2
100
AcDbLine
 10
13.79998675028298
 20
2.070095593199823
 30
0.0
 11
14.49853738404698
 21
2.768646226963824
 31
0.0
  0
LINE
  5
291
330
267
100
AcDbEntity
  8
LAYER002
  6
Continuous
 62
     2
100
AcDbLine
 10
13.79998728305406
 20
2.07008529176943
 30
0.0
 11
13.79998728305406
 21
0.0000169323944306
 31
0.0
  0
LINE
  5
292
330
267
100
AcDbEntity
  8
LAYER002
  6
Continuous
 62
     2
100
AcDbLine
 10
12.49999949008531
 20
0.0000169323944306
 30
0.0
 11
13.79998728305406
 21
0.0000169323944306
 31
0.0
  0
LINE
  5
293
330
267
100
AcDbEntity
  8
LAYER002
  6
Continuous
 62
     2
100
AcDbLine
 10
18.12133738071031
 20
7.800004725363123
 30
0.0
 11
19.42132517367906
 21
7.800004725363123
 31
0.0
  0
LINE
  5
294
330
267
100
AcDbEntity
  8
LAYER002
  6
Continuous
 62
     2
100
AcDbLine
 10
19.42132517367906
 20
7.800004725363123
 30
0.0
 11
19.42132517367906
 21
6.50001693239443
 31
0.0
  0
LINE
  5
295
330
267
100
AcDbEntity
  8
LAYER002
  6
Continuous
 62
     2
100
AcDbLine
 10
18.12133738071031
 20
7.800004725363123
 30
0.0
 11
18.12133738071031
 21
6.50001693239443
 31
0.0
  0
LINE
  5
296
330
267
100
AcDbEntity
  8
LAYER002
  6
Continuous
 62
     2
100
AcDbLine
 10
18.12133738071031
 20
6.50001693239443
 30
0.0
 11
19.42132517367906
 21
6.50001693239443
 31
0.0
  0
LINE
  5
297
330
267
100
AcDbEntity
  8
LAYER002
  6
Continuous
 62
     2
100
AcDbLine
 10
19.42132517367906
 20
5.800004725363123
 30
0.0
 11
19.42132517367906
 21
0.0000169323944306
 31
0.0
  0
LINE
  5
298
330
267
100
AcDbEntity
  8
LAYER002
  6
Continuous
 62
     2
100
AcDbLine
 10
18.12133738071031
 20
5.800004725363123
 30
0.0
 11
19.42132517367906
 21
5.800004725363123
 31
0.0
  0
LINE
  5
299
330
267
100
AcDbEntity
  8
LAYER002
  6
Continuous
 62
     2
100
AcDbLine
 10
18.12133738071031
 20
5.800004725363123
 30
0.0
 11
18.12133738071031
 21
0.0000169323944306
 31
0.0
  0
LINE
  5
29A
330
267
100
AcDbEntity
  8
LAYER002
  6
Continuous
 62
     2
100
AcDbLine
 10
18.12133738071031
 20
0.0000169323944306
 30
0.0
 11
19.42132517367906
 21
0.0000169323944306
 31
0.0
  0
LINE
  5
29B
330
267
100
AcDbEntity
  8
LAYER002
  6
Continuous
 62
     2
100
AcDbLine
 10
20.12133738071032
 20
5.800004725363123
 30
0.0
 11
20.12133738071032
 21
0.0000169323944306
 31
0.0
  0
LINE
  5
29C
330
267
100
AcDbEntity
  8
LAYER002
  6
Continuous
 62
     2
100
AcDbLine
 10
20.12133738071032
 20
5.800004725363123
 30
0.0
 11
21.42132517367906
 21
5.800004725363123
 31
0.0
  0
LINE
  5
29D
330
267
100
AcDbEntity
  8
LAYER002
  6
Continuous
 62
     2
100
AcDbLine
 10
21.42132517367906
 20
5.800004725363123
 30
0.0
 11
21.42132517367906
 21
5.430375819113123
 31
0.0
  0
LINE
  5
29E
330
267
100
AcDbEntity
  8
LAYER002
  6
Continuous
 62
     2
100
AcDbLine
 10
25.42132517367907
 20
3.150010828878748
 30
0.0
 11
25.42132517367907
 21
0.0000169323944306
 31
0.0
  0
LINE
  5
29F
330
267
100
AcDbEntity
  8
LAYER002
  6
Continuous
 62
     2
100
AcDbLine
 10
24.12133738071032
 20
0.0000169323944306
 30
0.0
 11
25.42132517367907
 21
0.0000169323944306
 31
0.0
  0
LINE
  5
2A0
330
267
100
AcDbEntity
  8
LAYER002
  6
Continuous
 62
     2
100
AcDbLine
 10
24.12133738071032
 20
3.150010828878748
 30
0.0
 11
24.12133738071032
 21
0.0000169323944306
 31
0.0
  0
LINE
  5
2A1
330
267
100
AcDbEntity
  8
LAYER002
  6
Continuous
 62
     2
100
AcDbLine
 10
21.42132517367906
 20
3.150010828878748
 30
0.0
 11
21.42132517367906
 21
0.0000169323944306
 31
0.0
  0
LINE
  5
2A2
330
267
100
AcDbEntity
  8
LAYER002
  6
Continuous
 62
     2
100
AcDbLine
 10
20.12133738071032
 20
0.0000169323944306
 30
0.0
 11
21.42132517367906
 21
0.0000169323944306
 31
0.0
  0
CIRCLE
  5
2A3
330
267
100
AcDbEntity
  8
LAYER002
  6
Continuous
 62
     2
100
AcDbCircle
 10
25.52133127719469
 20
6.900010828878748
 30
0.0
 40
1.3125
  0
ARC
  5
2A4
330
267
100
AcDbEntity
  8
LAYER002
  6
Continuous
 62
     2
100
AcDbCircle
 10
25.70883127719469
 20
7.212510828878748
 30
0.0
 40
0.4375
100
AcDbArc
 50
279.6190553564883
 51
90.0000025044752
  0
CIRCLE
  5
2A5
330
267
100
AcDbEntity
  8
LAYER002
  6
Continuous
 62
     2
100
AcDbCircle
 10
25.52133127719469
 20
6.900010828878748
 30
0.0
 40
1.212499976158142
  0
ARC
  5
2A6
330
267
100
AcDbEntity
  8
LAYER002
  6
Continuous
 62
     2
100
AcDbCircle
 10
25.70883127719469
 20
7.212510828878748
 30
0.0
 40
0.2874999940395355
100
AcDbArc
 50
269.999997495528
 51
90.00000250447195
  0
ARC
  5
2A7
330
267
100
AcDbEntity
  8
LAYER002
  6
Continuous
 62
     2
100
AcDbCircle
 10
7.14999338656969
 20
2.900010828878748
 30
0.0
 40
1.600000023841857
100
AcDbArc
 50
34.22886464811413
 51
145.7711403608408
  0
ARC
  5
2A8
330
267
100
AcDbEntity
  8
LAYER002
  6
Continuous
 62
     2
100
AcDbCircle
 10
7.14999338656969
 20
2.900010828878748
 30
0.0
 40
2.900000095367431
100
AcDbArc
 50
350.4059320936599
 51
352.0718579209092
  0
ARC
  5
2A9
330
267
100
AcDbEntity
  8
LAYER002
  6
Continuous
 62
     2
100
AcDbCircle
 10
7.14999338656969
 20
2.900010828878748
 30
0.0
 40
1.600000023841857
100
AcDbArc
 50
194.4775098426155
 51
311.4169259054017
  0
ARC
  5
2AA
330
267
100
AcDbEntity
  8
LAYER002
  6
Continuous
 62
     2
100
AcDbCircle
 10
7.14999338656969
 20
2.900010828878748
 30
0.0
 40
2.900000095367431
100
AcDbArc
 50
352.0718579209092
 51
313.0240179633187
  0
ARC
  5
2AB
330
267
100
AcDbEntity
  8
LAYER002
  6
Continuous
 62
     2
100
AcDbCircle
 10
22.77133127719469
 20
3.150010828878748
 30
0.0
 40
2.650000095367432
100
AcDbArc
 50
0.0
 51
120.6261267805192
  0
ARC
  5
2AC
330
267
100
AcDbEntity
  8
LAYER002
  6
Continuous
 62
     2
100
AcDbCircle
 10
22.77133127719469
 20
3.150010828878748
 30
0.0
 40
1.350000023841857
100
AcDbArc
 50
0.0
 51
180.0000050089569
  0
ENDBLK
  5
2AD
330
267
100
AcDbEntity
  8
0
100
AcDbBlockEnd
  0
BLOCK
  5
2DA
330
2CF
100
AcDbEntity
  8
0
100
AcDbBlockBegin
  2
帝金図面用紙HP用
 70
     0
 10
0.0
 20
0.0
 30
0.0
  3
帝金図面用紙HP用
  1

  0
TEXT
  5
2D0
330
2CF
100
AcDbEntity
  8
図枠
 60
     1
100
AcDbText
 10
20.0
 20
15.0
 30
0.0
 40
3.5
  1
!GENTITLE-LL
100
AcDbText
  0
TEXT
  5
2D1
330
2CF
100
AcDbEntity
  8
図枠
 60
     1
100
AcDbText
 10
405.0
 20
282.0
 30
0.0
 40
3.5
  1
!GENTITLE-RU
100
AcDbText
  0
TEXT
  5
2D2
330
2CF
100
AcDbEntity
  8
図枠
 60
     1
100
AcDbText
 10
420.0
 20
297.0
 30
0.0
 40
3.5
  1
!GENTITLE-MAX
100
AcDbText
  0
TEXT
  5
2D3
330
2CF
100
AcDbEntity
  8
図枠
 60
     1
100
AcDbText
 10
404.9999999999999
 20
15.0
 30
0.0
 40
3.5
  1
!GENTITLE-INSERT
100
AcDbText
  0
LINE
  5
2D4
330
2CF
100
AcDbEntity
  8
図枠
 62
     1
370
    40
100
AcDbLine
 10
20.0
 20
15.0
 30
0.0
 11
404.9999999999999
 21
15.0
 31
0.0
1001
GENIUS_GENREC_14
1002
{
1000
PYDIR
1011
0.0000000000000182
1021
297.0
1031
0.0
1002
}
1002
{
1000
PXDIR
1011
420.0
1021
0.0
1031
0.0
1002
}
1002
{
1000
PORI
1011
0.0
1021
0.0
1031
0.0
1002
}
1002
{
1000
PINS
1011
0.0
1021
0.0
1031
0.0
1002
}
1002
{
1000
PINS2
1011
420.0
1021
297.0
1031
0.0
1002
}
1002
{
1000
C
1070
     1
1002
}
1001
GENIUS_GENOBJ-N-REC_13
1002
{
1000
OWNER
1000
GEN
1002
}
1001
GENIUS_GENODEF_13
1002
{
1000
HIER
1070
     0
1002
}
1002
{
1000
MANEDIT
1070
     0
1002
}
1002
{
1000
NOSEL
1070
     0
1002
}
1002
{
1000
BEHIND
1070
     0
1002
}
1002
{
1000
OTHER
1070
     0
1002
}
1002
{
1000
REACTOR
1002
}
  0
LINE
  5
2D5
330
2CF
100
AcDbEntity
  8
図枠
 62
     1
370
    40
100
AcDbLine
 10
404.9999999999999
 20
15.0
 30
0.0
 11
405.0
 21
282.0
 31
0.0
1001
GENIUS_GENREC_14
1002
{
1000
PYDIR
1011
0.0000000000000182
1021
297.0
1031
0.0
1002
}
1002
{
1000
PXDIR
1011
420.0
1021
0.0
1031
0.0
1002
}
1002
{
1000
PORI
1011
0.0
1021
0.0
1031
0.0
1002
}
1002
{
1000
PINS
1011
0.0
1021
0.0
1031
0.0
1002
}
1002
{
1000
PINS2
1011
420.0
1021
297.0
1031
0.0
1002
}
1002
{
1000
C
1070
     1
1002
}
1001
GENIUS_GENOBJ-N-REC_13
1002
{
1000
OWNER
1000
GEN
1002
}
1001
GENIUS_GENODEF_13
1002
{
1000
HIER
1070
     0
1002
}
1002
{
1000
MANEDIT
1070
     0
1002
}
1002
{
1000
NOSEL
1070
     0
1002
}
1002
{
1000
BEHIND
1070
     0
1002
}
1002
{
1000
OTHER
1070
     0
1002
}
1002
{
1000
REACTOR
1002
}
  0
LINE
  5
2D6
330
2CF
100
AcDbEntity
  8
図枠
 62
     1
370
    40
100
AcDbLine
 10
405.0
 20
282.0
 30
0.0
 11
19.99999999999994
 21
282.0000000000001
 31
0.0
1001
GENIUS_GENREC_14
1002
{
1000
PYDIR
1011
0.0000000000000182
1021
297.0
1031
0.0
1002
}
1002
{
1000
PXDIR
1011
420.0
1021
0.0
1031
0.0
1002
}
1002
{
1000
PORI
1011
0.0
1021
0.0
1031
0.0
1002
}
1002
{
1000
PINS
1011
0.0
1021
0.0
1031
0.0
1002
}
1002
{
1000
PINS2
1011
420.0
1021
297.0
1031
0.0
1002
}
1002
{
1000
C
1070
     1
1002
}
1001
GENIUS_GENOBJ-N-REC_13
1002
{
1000
OWNER
1000
GEN
1002
}
1001
GENIUS_GENODEF_13
1002
{
1000
HIER
1070
     0
1002
}
1002
{
1000
MANEDIT
1070
     0
1002
}
1002
{
1000
NOSEL
1070
     0
1002
}
1002
{
1000
BEHIND
1070
     0
1002
}
1002
{
1000
OTHER
1070
     0
1002
}
1002
{
1000
REACTOR
1002
}
  0
LINE
  5
2D7
330
2CF
100
AcDbEntity
  8
図枠
 62
     1
370
    40
100
AcDbLine
 10
19.99999999999994
 20
282.0000000000001
 30
0.0
 11
20.0
 21
15.0
 31
0.0
1001
GENIUS_GENREC_14
1002
{
1000
PYDIR
1011
0.0000000000000182
1021
297.0
1031
0.0
1002
}
1002
{
1000
PXDIR
1011
420.0
1021
0.0
1031
0.0
1002
}
1002
{
1000
PORI
1011
0.0
1021
0.0
1031
0.0
1002
}
1002
{
1000
PINS
1011
0.0
1021
0.0
1031
0.0
1002
}
1002
{
1000
PINS2
1011
420.0
1021
297.0
1031
0.0
1002
}
1002
{
1000
C
1070
     1
1002
}
1001
GENIUS_GENOBJ-N-REC_13
1002
{
1000
OWNER
1000
GEN
1002
}
1001
GENIUS_GENODEF_13
1002
{
1000
HIER
1070
     0
1002
}
1002
{
1000
MANEDIT
1070
     0
1002
}
1002
{
1000
NOSEL
1070
     0
1002
}
1002
{
1000
BEHIND
1070
     0
1002
}
1002
{
1000
OTHER
1070
     0
1002
}
1002
{
1000
REACTOR
1002
}
  0
ENDBLK
  5
2DB
330
2CF
100
AcDbEntity
  8
0
100
AcDbBlockEnd
  0
BLOCK
  5
2F9
330
2F8
100
AcDbEntity
  8
0
100
AcDbBlockBegin
  2
_Open30
 70
     0
 10
0.0
 20
0.0
 30
0.0
  3
_Open30
  1

  0
LINE
  5
2FA
330
2F8
100
AcDbEntity
  8
0
  6
ByBlock
 62
     0
370
    -2
100
AcDbLine
 10
-1.0
 20
0.26794919
 30
0.0
 11
0.0
 21
0.0
 31
0.0
  0
LINE
  5
2FB
330
2F8
100
AcDbEntity
  8
0
  6
ByBlock
 62
     0
370
    -2
100
AcDbLine
 10
0.0
 20
0.0
 30
0.0
 11
-1.0
 21
-0.26794919
 31
0.0
  0
LINE
  5
2FC
330
2F8
100
AcDbEntity
  8
0
  6
ByBlock
 62
     0
370
    -2
100
AcDbLine
 10
0.0
 20
0.0
 30
0.0
 11
-1.0
 21
0.0
 31
0.0
  0
ENDBLK
  5
2FD
330
2F8
100
AcDbEntity
  8
0
100
AcDbBlockEnd
  0
BLOCK
  5
304
330
301
100
AcDbEntity
  8
0
100
AcDbBlockBegin
  2
A$C61314446
 70
     0
 10
0.0
 20
0.0
 30
0.0
  3
A$C61314446
  1

  0
LINE
  5
305
330
301
100
AcDbEntity
  8
LAYER002
  6
Continuous
 62
     2
100
AcDbLine
 10
12.05275422000162
 20
8.719910700870624
 30
0.0
 11
12.05275422000162
 21
8.286576350284693
 31
0.0
  0
LINE
  5
306
330
301
100
AcDbEntity
  8
LAYER002
  6
Continuous
 62
     2
100
AcDbLine
 10
12.05275422000162
 20
8.286576350284693
 30
0.0
 11
14.50108796023593
 21
8.286576350284693
 31
0.0
  0
LINE
  5
307
330
301
100
AcDbEntity
  8
LAYER002
  6
Continuous
 62
     2
100
AcDbLine
 10
14.50108796023593
 20
8.286576350284693
 30
0.0
 11
14.50108796023593
 21
7.576577265812034
 31
0.0
  0
LINE
  5
308
330
301
100
AcDbEntity
  8
LAYER002
  6
Continuous
 62
     2
100
AcDbLine
 10
13.38524323367343
 20
7.576577265812034
 30
0.0
 11
14.50108796023593
 21
7.576577265812034
 31
0.0
  0
LINE
  5
309
330
301
100
AcDbEntity
  8
LAYER002
  6
Continuous
 62
     2
100
AcDbLine
 10
13.38523414277964
 20
7.576580408279284
 30
0.0
 11
12.95308988009952
 21
6.769911096124715
 31
0.0
  0
LINE
  5
30A
330
301
100
AcDbEntity
  8
LAYER002
  6
Continuous
 62
     2
100
AcDbLine
 10
12.57977512382953
 20
7.576570791841692
 30
0.0
 11
12.14763446391282
 21
6.769908204845624
 31
0.0
  0
LINE
  5
30B
330
301
100
AcDbEntity
  8
LAYER002
  6
Continuous
 62
     2
100
AcDbLine
 10
10.72906952761872
 20
7.576577265812034
 30
0.0
 11
12.57977753543122
 21
7.576577265812034
 31
0.0
  0
LINE
  5
30C
330
301
100
AcDbEntity
  8
LAYER002
  6
Continuous
 62
     2
100
AcDbLine
 10
10.72906428613493
 20
7.576573597118514
 30
0.0
 11
11.16120854881504
 21
6.769904284963946
 31
0.0
  0
LINE
  5
30D
330
301
100
AcDbEntity
  8
LAYER002
  6
Continuous
 62
     2
100
AcDbLine
 10
9.923608869948338
 20
7.576576488397623
 30
0.0
 11
10.35574952986493
 21
6.769913901401555
 31
0.0
  0
LINE
  5
30E
330
301
100
AcDbEntity
  8
LAYER002
  6
Continuous
 62
     2
100
AcDbLine
 10
8.807759102814117
 20
7.576577265812034
 30
0.0
 11
9.923603829376617
 21
7.576577265812034
 31
0.0
  0
LINE
  5
30F
330
301
100
AcDbEntity
  8
LAYER002
  6
Continuous
 62
     2
100
AcDbLine
 10
8.807759102814117
 20
8.286576350284693
 30
0.0
 11
8.807759102814117
 21
7.576577265812034
 31
0.0
  0
LINE
  5
310
330
301
100
AcDbEntity
  8
LAYER002
  6
Continuous
 62
     2
100
AcDbLine
 10
8.807759102814117
 20
8.286576350284693
 30
0.0
 11
11.25609284304843
 21
8.286576350284693
 31
0.0
  0
LINE
  5
311
330
301
100
AcDbEntity
  8
LAYER002
  6
Continuous
 62
     2
100
AcDbLine
 10
11.25609284304843
 20
8.719910700870624
 30
0.0
 11
11.25609284304843
 21
8.286576350284693
 31
0.0
  0
LINE
  5
312
330
301
100
AcDbEntity
  8
LAYER002
  6
Continuous
 62
     2
100
AcDbLine
 10
11.25609284304843
 20
8.719910700870624
 30
0.0
 11
12.05275422000162
 21
8.719910700870624
 31
0.0
  0
LINE
  5
313
330
301
100
AcDbEntity
  8
LAYER002
  6
Continuous
 62
     2
100
AcDbLine
 10
8.656101998321929
 20
6.769909937931174
 30
0.0
 11
8.656101998321929
 21
5.019911845279803
 31
0.0
  0
LINE
  5
314
330
301
100
AcDbEntity
  8
LAYER002
  6
Continuous
 62
     2
100
AcDbLine
 10
8.656101998321929
 20
6.769909937931174
 30
0.0
 11
14.65274506472812
 21
6.769909937931174
 31
0.0
  0
LINE
  5
315
330
301
100
AcDbEntity
  8
LAYER002
  6
Continuous
 62
     2
100
AcDbLine
 10
14.65274506472812
 20
6.769909937931174
 30
0.0
 11
14.65274506472812
 21
5.019911845279803
 31
0.0
  0
LINE
  5
316
330
301
100
AcDbEntity
  8
LAYER002
  6
Continuous
 62
     2
100
AcDbLine
 10
14.05691986941562
 20
5.019911845279803
 30
0.0
 11
14.65274506472812
 21
5.019911845279803
 31
0.0
  0
LINE
  5
317
330
301
100
AcDbEntity
  8
LAYER002
  6
Continuous
 62
     2
100
AcDbLine
 10
14.05691986941562
 20
5.019911845279803
 30
0.0
 11
14.05691986941562
 21
3.403245051456563
 31
0.0
  0
LINE
  5
318
330
301
100
AcDbEntity
  8
LAYER002
  6
Continuous
 62
     2
100
AcDbLine
 10
12.81676178836093
 20
2.853244860721703
 30
0.0
 11
13.50691681765784
 21
2.853244860721703
 31
0.0
  0
LINE
  5
319
330
301
100
AcDbEntity
  8
LAYER002
  6
Continuous
 62
     2
100
AcDbLine
 10
12.64771874553932
 20
3.563242335873924
 30
0.0
 11
12.81676539349442
 21
2.853246392711543
 31
0.0
  0
LINE
  5
31A
330
301
100
AcDbEntity
  8
LAYER002
  6
Continuous
 62
     2
100
AcDbLine
 10
12.64770966433752
 20
3.563243945194354
 30
0.0
 11
13.13858490847812
 21
3.563243945194354
 31
0.0
  0
LINE
  5
31B
330
301
100
AcDbEntity
  8
LAYER002
  6
Continuous
 62
     2
100
AcDbLine
 10
13.34692841433752
 20
4.543244441105004
 30
0.0
 11
13.34692841433752
 21
3.771577914310574
 31
0.0
  0
LINE
  5
31C
330
301
100
AcDbEntity
  8
LAYER002
  6
Continuous
 62
     2
100
AcDbLine
 10
9.961918648712526
 20
4.543244441105004
 30
0.0
 11
9.961918648712526
 21
2.853244860721703
 31
0.0
  0
LINE
  5
31D
330
301
100
AcDbEntity
  8
LAYER002
  6
Continuous
 62
     2
100
AcDbLine
 10
9.251927193634429
 20
2.853244860721703
 30
0.0
 11
9.961918648712526
 21
2.853244860721703
 31
0.0
  0
LINE
  5
31E
330
301
100
AcDbEntity
  8
LAYER002
  6
Continuous
 62
     2
100
AcDbLine
 10
9.251927193634429
 20
5.019911845279803
 30
0.0
 11
9.251927193634429
 21
2.853244860721703
 31
0.0
  0
LINE
  5
31F
330
301
100
AcDbEntity
  8
LAYER002
  6
Continuous
 62
     2
100
AcDbLine
 10
8.656101998321929
 20
5.019911845279803
 30
0.0
 11
9.251927193634429
 21
5.019911845279803
 31
0.0
  0
LINE
  5
320
330
301
100
AcDbEntity
  8
LAYER002
  6
Continuous
 62
     2
100
AcDbLine
 10
9.366078194610935
 20
6.059910853458514
 30
0.0
 11
9.366078194610935
 21
5.253243525577664
 31
0.0
  0
LINE
  5
321
330
301
100
AcDbEntity
  8
LAYER002
  6
Continuous
 62
     2
100
AcDbLine
 10
9.366078194610935
 20
6.059910853458514
 30
0.0
 11
11.29942780398593
 21
6.059910853458514
 31
0.0
  0
LINE
  5
322
330
301
100
AcDbEntity
  8
LAYER002
  6
Continuous
 62
     2
100
AcDbLine
 10
11.29942780398593
 20
6.059910853458514
 30
0.0
 11
11.29942780398593
 21
5.253243525577662
 31
0.0
  0
LINE
  5
323
330
301
100
AcDbEntity
  8
LAYER002
  6
Continuous
 62
     2
100
AcDbLine
 10
11.2994278039859
 20
4.543244441105006
 30
0.0
 11
11.29942780398593
 21
2.419911463810084
 31
0.0
  0
LINE
  5
324
330
301
100
AcDbEntity
  8
LAYER002
  6
Continuous
 62
     2
100
AcDbLine
 10
12.00941925906412
 20
6.059910853458514
 30
0.0
 11
12.00941925906412
 21
5.253243525577664
 31
0.0
  0
LINE
  5
325
330
301
100
AcDbEntity
  8
LAYER002
  6
Continuous
 62
     2
100
AcDbLine
 10
12.00941925906412
 20
4.543244441105004
 30
0.0
 11
12.00941925906412
 21
2.419911463810084
 31
0.0
  0
LINE
  5
326
330
301
100
AcDbEntity
  8
LAYER002
  6
Continuous
 62
     2
100
AcDbLine
 10
12.00941925906412
 20
6.059910853458514
 30
0.0
 11
13.94276886843911
 21
6.059910853458514
 31
0.0
  0
LINE
  5
327
330
301
100
AcDbEntity
  8
LAYER002
  6
Continuous
 62
     2
100
AcDbLine
 10
13.94276886843911
 20
6.059910853458514
 30
0.0
 11
13.94276886843911
 21
5.253243525577664
 31
0.0
  0
LINE
  5
328
330
301
100
AcDbEntity
  8
LAYER002
  6
Continuous
 62
     2
100
AcDbLine
 10
9.366078194610935
 20
5.253243525577664
 30
0.0
 11
11.29942780398593
 21
5.253243525577662
 31
0.0
  0
LINE
  5
329
330
301
100
AcDbEntity
  8
LAYER002
  6
Continuous
 62
     2
100
AcDbLine
 10
12.00941925906412
 20
5.253243525577664
 30
0.0
 11
13.94276886843911
 21
5.253243525577664
 31
0.0
  0
LINE
  5
32A
330
301
100
AcDbEntity
  8
LAYER002
  6
Continuous
 62
     2
100
AcDbLine
 10
11.29942780398593
 20
2.419911463810084
 30
0.0
 11
12.00941925906412
 21
2.419911463810084
 31
0.0
  0
LINE
  5
32B
330
301
100
AcDbEntity
  8
LAYER002
  6
Continuous
 62
     2
100
AcDbLine
 10
17.76570588015784
 20
8.633244593692893
 30
0.0
 11
18.15442353152502
 21
8.633244593692893
 31
0.0
  0
LINE
  5
32C
330
301
100
AcDbEntity
  8
LAYER002
  6
Continuous
 62
     2
100
AcDbLine
 10
18.54314118289221
 20
8.633244593692893
 30
0.0
 11
18.15442353152502
 21
8.633244593692893
 31
0.0
  0
LINE
  5
32D
330
301
100
AcDbEntity
  8
LAYER002
  6
Continuous
 62
     2
100
AcDbLine
 10
21.25026284695244
 20
7.019580831317785
 30
0.0
 11
20.88229332905962
 21
6.382238942130054
 31
0.0
  0
LINE
  5
32E
330
301
100
AcDbEntity
  8
LAYER002
  6
Continuous
 62
     2
100
AcDbLine
 10
20.00441437625162
 20
6.703314860416522
 30
0.0
 11
20.00441437625162
 21
6.276578028751483
 31
0.0
  0
LINE
  5
32F
330
301
100
AcDbEntity
  8
LAYER002
  6
Continuous
 62
     2
100
AcDbLine
 10
20.00441437625162
 20
6.276578028751483
 30
0.0
 11
18.48775177859534
 21
6.276578028751483
 31
0.0
  0
LINE
  5
330
330
301
100
AcDbEntity
  8
LAYER002
  6
Continuous
 62
     2
100
AcDbLine
 10
18.48775177859534
 20
6.276578028751483
 30
0.0
 11
18.48775177859534
 21
5.686577876163593
 31
0.0
  0
LINE
  5
331
330
301
100
AcDbEntity
  8
LAYER002
  6
Continuous
 62
     2
100
AcDbLine
 10
20.97942047976721
 20
5.686577876163593
 30
0.0
 11
18.48775177859534
 21
5.686577876163593
 31
0.0
  0
LINE
  5
332
330
301
100
AcDbEntity
  8
LAYER002
  6
Continuous
 62
     2
100
AcDbLine
 10
20.97942047976721
 20
5.686577876163593
 30
0.0
 11
20.97942047976721
 21
4.976578791690943
 31
0.0
  0
LINE
  5
333
330
301
100
AcDbEntity
  8
LAYER002
  6
Continuous
 62
     2
100
AcDbLine
 10
20.97942047976721
 20
4.976578791690943
 30
0.0
 11
18.48775177859534
 21
4.976578791690943
 31
0.0
  0
LINE
  5
334
330
301
100
AcDbEntity
  8
LAYER002
  6
Continuous
 62
     2
100
AcDbLine
 10
18.48775177859534
 20
4.976578791690943
 30
0.0
 11
18.48775177859534
 21
3.454911311222193
 31
0.0
  0
LINE
  5
335
330
301
100
AcDbEntity
  8
LAYER002
  6
Continuous
 62
     2
100
AcDbLine
 10
19.08458405398593
 20
3.454911311222193
 30
0.0
 11
18.48775177859534
 21
3.454911311222193
 31
0.0
  0
LINE
  5
336
330
301
100
AcDbEntity
  8
LAYER002
  6
Continuous
 62
     2
100
AcDbLine
 10
19.48579138492133
 20
4.633270766030193
 30
0.0
 11
20.15682697862553
 21
4.380610583278384
 31
0.0
  0
LINE
  5
337
330
301
100
AcDbEntity
  8
LAYER002
  6
Continuous
 62
     2
100
AcDbLine
 10
21.13107758425943
 20
3.454911311222193
 30
0.0
 11
19.86105805300943
 21
3.454911311222193
 31
0.0
  0
LINE
  5
338
330
301
100
AcDbEntity
  8
LAYER002
  6
Continuous
 62
     2
100
AcDbLine
 10
21.13107758425943
 20
3.454911311222193
 30
0.0
 11
21.13107758425943
 21
2.744911273075214
 31
0.0
  0
LINE
  5
339
330
301
100
AcDbEntity
  8
LAYER002
  6
Continuous
 62
     2
100
AcDbLine
 10
21.13107758425943
 20
2.744911273075214
 30
0.0
 11
15.17776947879062
 21
2.744911273075214
 31
0.0
  0
LINE
  5
33A
330
301
100
AcDbEntity
  8
LAYER002
  6
Continuous
 62
     2
100
AcDbLine
 10
15.17776947879062
 20
3.454911311222193
 30
0.0
 11
15.17776947879062
 21
2.744911273075214
 31
0.0
  0
LINE
  5
33B
330
301
100
AcDbEntity
  8
LAYER002
  6
Continuous
 62
     2
100
AcDbLine
 10
15.17776947879062
 20
3.454911311222193
 30
0.0
 11
16.48286896609534
 21
3.454911311222193
 31
0.0
  0
LINE
  5
33C
330
301
100
AcDbEntity
  8
LAYER002
  6
Continuous
 62
     2
100
AcDbLine
 10
16.84674503968892
 20
4.642185030638914
 30
0.0
 11
16.18026479391074
 21
4.391240040121743
 31
0.0
  0
LINE
  5
33D
330
301
100
AcDbEntity
  8
LAYER002
  6
Continuous
 62
     2
100
AcDbLine
 10
17.20265656375161
 20
3.454911311222193
 30
0.0
 11
17.82109528445471
 21
3.454911311222193
 31
0.0
  0
LINE
  5
33E
330
301
100
AcDbEntity
  8
LAYER002
  6
Continuous
 62
     2
100
AcDbLine
 10
17.82109528445471
 20
4.976578791690943
 30
0.0
 11
17.82109528445471
 21
3.454911311222193
 31
0.0
  0
LINE
  5
33F
330
301
100
AcDbEntity
  8
LAYER002
  6
Continuous
 62
     2
100
AcDbLine
 10
15.32942658328284
 20
4.976578791690943
 30
0.0
 11
17.82109528445471
 21
4.976578791690943
 31
0.0
  0
LINE
  5
340
330
301
100
AcDbEntity
  8
LAYER002
  6
Continuous
 62
     2
100
AcDbLine
 10
15.32942658328284
 20
5.686577876163593
 30
0.0
 11
15.32942658328284
 21
4.976578791690943
 31
0.0
  0
LINE
  5
341
330
301
100
AcDbEntity
  8
LAYER002
  6
Continuous
 62
     2
100
AcDbLine
 10
15.32942658328284
 20
5.686577876163593
 30
0.0
 11
17.82109528445471
 21
5.686577876163593
 31
0.0
  0
LINE
  5
342
330
301
100
AcDbEntity
  8
LAYER002
  6
Continuous
 62
     2
100
AcDbLine
 10
17.82109528445471
 20
6.276578028751483
 30
0.0
 11
17.82109528445471
 21
5.686577876163593
 31
0.0
  0
LINE
  5
343
330
301
100
AcDbEntity
  8
LAYER002
  6
Continuous
 62
     2
100
AcDbLine
 10
16.30443268679843
 20
6.276578028751483
 30
0.0
 11
17.82109528445471
 21
6.276578028751483
 31
0.0
  0
LINE
  5
344
330
301
100
AcDbEntity
  8
LAYER002
  6
Continuous
 62
     2
100
AcDbLine
 10
16.30443268679843
 20
6.703314860416522
 30
0.0
 11
16.30443268679843
 21
6.276578028751483
 31
0.0
  0
LINE
  5
345
330
301
100
AcDbEntity
  8
LAYER002
  6
Continuous
 62
     2
100
AcDbLine
 10
15.05859039594301
 20
7.019580905823584
 30
0.0
 11
15.42655609913842
 21
6.382245623885324
 31
0.0
  0
LINE
  5
346
330
301
100
AcDbEntity
  8
LAYER002
  6
Continuous
 62
     2
100
AcDbLine
 10
16.85095673465002
 20
6.986577113224143
 30
0.0
 11
18.15442353152502
 21
6.986577113224143
 31
0.0
  0
LINE
  5
347
330
301
100
AcDbEntity
  8
LAYER002
  6
Continuous
 62
     2
100
AcDbLine
 10
19.45789032840002
 20
6.986577113224143
 30
0.0
 11
18.15442353152502
 21
6.986577113224143
 31
0.0
  0
LINE
  5
348
330
301
100
AcDbEntity
  8
LAYER002
  6
Continuous
 62
     2
100
AcDbLine
 10
21.61276703738443
 20
7.419911463810084
 30
0.0
 11
21.61276703738443
 21
6.709912379337424
 31
0.0
  0
LINE
  5
349
330
301
100
AcDbEntity
  8
LAYER002
  6
Continuous
 62
     2
100
AcDbLine
 10
21.61276703738443
 20
7.419911463810084
 30
0.0
 11
22.37109833621253
 21
7.419911463810084
 31
0.0
  0
LINE
  5
34A
330
301
100
AcDbEntity
  8
LAYER002
  6
Continuous
 62
     2
100
AcDbLine
 10
22.37109833621253
 20
8.719910700870624
 30
0.0
 11
22.37109833621253
 21
7.419911463810084
 31
0.0
  0
LINE
  5
34B
330
301
100
AcDbEntity
  8
LAYER002
  6
Continuous
 62
     2
100
AcDbLine
 10
22.37109833621253
 20
8.719910700870624
 30
0.0
 11
23.08108979129062
 21
8.719910700870624
 31
0.0
  0
LINE
  5
34C
330
301
100
AcDbEntity
  8
LAYER002
  6
Continuous
 62
     2
100
AcDbLine
 10
23.08108979129062
 20
8.719910700870624
 30
0.0
 11
23.08108979129062
 21
7.419911463810084
 31
0.0
  0
LINE
  5
34D
330
301
100
AcDbEntity
  8
LAYER002
  6
Continuous
 62
     2
100
AcDbLine
 10
23.08108979129062
 20
7.419911463810084
 30
0.0
 11
23.64441376590002
 21
7.419911463810084
 31
0.0
  0
LINE
  5
34E
330
301
100
AcDbEntity
  8
LAYER002
  6
Continuous
 62
     2
100
AcDbLine
 10
23.64441376590002
 20
7.419911463810084
 30
0.0
 11
23.64441376590002
 21
6.709912379337424
 31
0.0
  0
LINE
  5
34F
330
301
100
AcDbEntity
  8
LAYER002
  6
Continuous
 62
     2
100
AcDbLine
 10
24.35373171591962
 20
8.501619528013623
 30
0.0
 11
24.90773869542022
 21
8.308921450467465
 31
0.0
  0
LINE
  5
350
330
301
100
AcDbEntity
  8
LAYER002
  6
Continuous
 62
     2
100
AcDbLine
 10
24.80977326297034
 20
7.744910319400904
 30
0.0
 11
25.36110382937662
 21
7.744910319400904
 31
0.0
  0
LINE
  5
351
330
301
100
AcDbEntity
  8
LAYER002
  6
Continuous
 62
     2
100
AcDbLine
 10
25.36110382937662
 20
8.719910700870624
 30
0.0
 11
25.36110382937662
 21
7.744910319400904
 31
0.0
  0
LINE
  5
352
330
301
100
AcDbEntity
  8
LAYER002
  6
Continuous
 62
     2
100
AcDbLine
 10
25.36110382937662
 20
8.719910700870624
 30
0.0
 11
26.07108002566562
 21
8.719910700870624
 31
0.0
  0
LINE
  5
353
330
301
100
AcDbEntity
  8
LAYER002
  6
Continuous
 62
     2
100
AcDbLine
 10
26.07108002566562
 20
8.719910700870624
 30
0.0
 11
26.07108002566562
 21
7.744910319400904
 31
0.0
  0
LINE
  5
354
330
301
100
AcDbEntity
  8
LAYER002
  6
Continuous
 62
     2
100
AcDbLine
 10
26.07108002566562
 20
7.744910319400904
 30
0.0
 11
27.47942047976721
 21
7.744910319400904
 31
0.0
  0
LINE
  5
355
330
301
100
AcDbEntity
  8
LAYER002
  6
Continuous
 62
     2
100
AcDbLine
 10
27.47942047976721
 20
7.744910319400904
 30
0.0
 11
27.47942047976721
 21
7.034911234928244
 31
0.0
  0
LINE
  5
356
330
301
100
AcDbEntity
  8
LAYER002
  6
Continuous
 62
     2
100
AcDbLine
 10
26.07108002566562
 20
7.034911234928244
 30
0.0
 11
27.47942047976721
 21
7.034911234928244
 31
0.0
  0
LINE
  5
357
330
301
100
AcDbEntity
  8
LAYER002
  6
Continuous
 62
     2
100
AcDbLine
 10
26.07108002566562
 20
7.034911234928244
 30
0.0
 11
26.07108002566562
 21
6.249911387516135
 31
0.0
  0
LINE
  5
358
330
301
100
AcDbEntity
  8
LAYER002
  6
Continuous
 62
     2
100
AcDbLine
 10
26.07108002566562
 20
6.249911387516135
 30
0.0
 11
27.69608002566562
 21
6.249911387516135
 31
0.0
  0
LINE
  5
359
330
301
100
AcDbEntity
  8
LAYER002
  6
Continuous
 62
     2
100
AcDbLine
 10
27.69608002566562
 20
6.249911387516135
 30
0.0
 11
27.69608002566562
 21
5.539910395694843
 31
0.0
  0
LINE
  5
35A
330
301
100
AcDbEntity
  8
LAYER002
  6
Continuous
 62
     2
100
AcDbLine
 10
26.28844147586093
 20
5.539910395694843
 30
0.0
 11
27.69608002566562
 21
5.539910395694843
 31
0.0
  0
LINE
  5
35B
330
301
100
AcDbEntity
  8
LAYER002
  6
Continuous
 62
     2
100
AcDbLine
 10
27.32666521601132
 20
2.798693176931793
 30
0.0
 11
27.80873025926172
 21
3.487357502958914
 31
0.0
  0
LINE
  5
35C
330
301
100
AcDbEntity
  8
LAYER002
  6
Continuous
 62
     2
100
AcDbLine
 10
26.07108002566562
 20
4.861428340030784
 30
0.0
 11
26.07108002566562
 21
2.419911463810084
 31
0.0
  0
LINE
  5
35D
330
301
100
AcDbEntity
  8
LAYER002
  6
Continuous
 62
     2
100
AcDbLine
 10
25.36110382937662
 20
2.419911463810084
 30
0.0
 11
26.07108002566562
 21
2.419911463810084
 31
0.0
  0
LINE
  5
35E
330
301
100
AcDbEntity
  8
LAYER002
  6
Continuous
 62
     2
100
AcDbLine
 10
25.36110382937662
 20
4.809003909183614
 30
0.0
 11
25.36110382937662
 21
2.419911463810084
 31
0.0
  0
LINE
  5
35F
330
301
100
AcDbEntity
  8
LAYER002
  6
Continuous
 62
     2
100
AcDbLine
 10
23.57943107781912
 20
3.345927503673664
 30
0.0
 11
24.01392443773432
 21
2.794456004006544
 31
0.0
  0
LINE
  5
360
330
301
100
AcDbEntity
  8
LAYER002
  6
Continuous
 62
     2
100
AcDbLine
 10
24.04629975222813
 20
5.539910395694843
 30
0.0
 11
25.12740021609534
 21
5.539910395694843
 31
0.0
  0
LINE
  5
361
330
301
100
AcDbEntity
  8
LAYER002
  6
Continuous
 62
     2
100
AcDbLine
 10
24.01776581668122
 20
6.249911387516135
 30
0.0
 11
25.36110382937662
 21
6.249911387516135
 31
0.0
  0
LINE
  5
362
330
301
100
AcDbEntity
  8
LAYER002
  6
Continuous
 62
     2
100
AcDbLine
 10
25.36110382937662
 20
7.034911234928244
 30
0.0
 11
25.36110382937662
 21
6.249911387516135
 31
0.0
  0
LINE
  5
363
330
301
100
AcDbEntity
  8
LAYER002
  6
Continuous
 62
     2
100
AcDbLine
 10
24.55786591433753
 20
7.034911234928244
 30
0.0
 11
25.36110382937662
 21
7.034911234928244
 31
0.0
  0
LINE
  5
364
330
301
100
AcDbEntity
  8
LAYER002
  6
Continuous
 62
     2
100
AcDbLine
 10
23.70054853868771
 20
6.936621342449615
 30
0.0
 11
24.17063907131953
 21
6.380049568313975
 31
0.0
  0
LINE
  5
365
330
301
100
AcDbEntity
  8
LAYER002
  6
Continuous
 62
     2
100
AcDbLine
 10
24.01776581668122
 20
6.249911387516135
 30
0.0
 11
24.01776581668122
 21
5.539910395694843
 31
0.0
  0
LINE
  5
366
330
301
100
AcDbEntity
  8
LAYER002
  6
Continuous
 62
     2
100
AcDbLine
 10
23.07074433230622
 20
6.709912379337424
 30
0.0
 11
23.64441376590002
 21
6.709912379337424
 31
0.0
  0
LINE
  5
367
330
301
100
AcDbEntity
  8
LAYER002
  6
Continuous
 62
     2
100
AcDbLine
 10
23.55363632015852
 20
4.873510774103394
 30
0.0
 11
23.97696875115642
 21
5.446130858634433
 31
0.0
  0
LINE
  5
368
330
301
100
AcDbEntity
  8
LAYER002
  6
Continuous
 62
     2
100
AcDbLine
 10
23.08108979129062
 20
5.347888072086444
 30
0.0
 11
23.08108979129062
 21
2.419911463810084
 31
0.0
  0
LINE
  5
369
330
301
100
AcDbEntity
  8
LAYER002
  6
Continuous
 62
     2
100
AcDbLine
 10
22.37109833621253
 20
2.419911463810084
 30
0.0
 11
23.08108979129062
 21
2.419911463810084
 31
0.0
  0
LINE
  5
36A
330
301
100
AcDbEntity
  8
LAYER002
  6
Continuous
 62
     2
100
AcDbLine
 10
22.37109833621253
 20
5.097221453739283
 30
0.0
 11
22.37109833621253
 21
2.419911463810084
 31
0.0
  0
LINE
  5
36B
330
301
100
AcDbEntity
  8
LAYER002
  6
Continuous
 62
     2
100
AcDbLine
 10
21.41021984448781
 20
4.687218763746313
 30
0.0
 11
21.75196941911864
 21
3.832844813457484
 31
0.0
  0
LINE
  5
36C
330
301
100
AcDbEntity
  8
LAYER002
  6
Continuous
 62
     2
100
AcDbLine
 10
21.61276703738443
 20
6.709912379337424
 30
0.0
 11
22.35403901004062
 21
6.709912379337424
 31
0.0
  0
LINE
  5
36D
330
301
100
AcDbEntity
  8
LAYER002
  6
Continuous
 62
     2
100
AcDbLine
 10
28.13443451785312
 20
7.636578639103053
 30
0.0
 11
28.13443451785312
 21
6.926570017887232
 31
0.0
  0
LINE
  5
36E
330
301
100
AcDbEntity
  8
LAYER002
  6
Continuous
 62
     2
100
AcDbLine
 10
28.13443451785312
 20
7.636578639103053
 30
0.0
 11
31.64442902468912
 21
7.636578639103053
 31
0.0
  0
LINE
  5
36F
330
301
100
AcDbEntity
  8
LAYER002
  6
Continuous
 62
     2
100
AcDbLine
 10
31.64442902468912
 20
8.719910700870624
 30
0.0
 11
31.64442902468912
 21
7.636578639103053
 31
0.0
  0
LINE
  5
370
330
301
100
AcDbEntity
  8
LAYER002
  6
Continuous
 62
     2
100
AcDbLine
 10
31.64442902468912
 20
8.719910700870624
 30
0.0
 11
32.35442047976722
 21
8.719910700870624
 31
0.0
  0
LINE
  5
371
330
301
100
AcDbEntity
  8
LAYER002
  6
Continuous
 62
     2
100
AcDbLine
 10
32.35442047976722
 20
8.719910700870624
 30
0.0
 11
32.35442047976722
 21
7.636578639103053
 31
0.0
  0
LINE
  5
372
330
301
100
AcDbEntity
  8
LAYER002
  6
Continuous
 62
     2
100
AcDbLine
 10
32.35442047976722
 20
7.636578639103053
 30
0.0
 11
33.48213654422034
 21
7.636578639103053
 31
0.0
  0
LINE
  5
373
330
301
100
AcDbEntity
  8
LAYER002
  6
Continuous
 62
     2
100
AcDbLine
 10
33.12702463587434
 20
8.170331002643095
 30
0.0
 11
33.77362970972402
 21
8.413047169943425
 31
0.0
  0
LINE
  5
374
330
301
100
AcDbEntity
  8
LAYER002
  6
Continuous
 62
     2
100
AcDbLine
 10
34.04442931010593
 20
7.361595183553205
 30
0.0
 11
34.27911168098731
 21
7.449687912634573
 31
0.0
  0
LINE
  5
375
330
301
100
AcDbEntity
  8
LAYER002
  6
Continuous
 62
     2
100
AcDbLine
 10
34.04442292117344
 20
7.361596186710475
 30
0.0
 11
34.04442292117344
 21
6.926577647281764
 31
0.0
  0
LINE
  5
376
330
301
100
AcDbEntity
  8
LAYER002
  6
Continuous
 62
     2
100
AcDbLine
 10
32.36932831668122
 20
6.926577647281764
 30
0.0
 11
34.04442292117344
 21
6.926577647281764
 31
0.0
  0
LINE
  5
377
330
301
100
AcDbEntity
  8
LAYER002
  6
Continuous
 62
     2
100
AcDbLine
 10
33.69185974575942
 20
4.373218815989213
 30
0.0
 11
33.50204561430192
 21
3.641707046298964
 31
0.0
  0
LINE
  5
378
330
301
100
AcDbEntity
  8
LAYER002
  6
Continuous
 62
     2
100
AcDbLine
 10
33.69186772820254
 20
4.373223762917273
 30
0.0
 11
34.28976095420873
 21
3.604503859447394
 31
0.0
  0
LINE
  5
379
330
301
100
AcDbEntity
  8
LAYER002
  6
Continuous
 62
     2
100
AcDbLine
 10
34.28976149218732
 20
3.604496860428174
 30
0.0
 11
34.00093859744024
 21
2.908811173057953
 31
0.0
  0
LINE
  5
37A
330
301
100
AcDbEntity
  8
LAYER002
  6
Continuous
 62
     2
100
AcDbLine
 10
28.13443451785312
 20
6.926570017887232
 30
0.0
 11
31.67149811648594
 21
6.926570017887232
 31
0.0
  0
LINE
  5
37B
330
301
100
AcDbEntity
  8
LAYER002
  6
Continuous
 62
     2
100
AcDbLine
 10
31.27109223269693
 20
6.011584361148944
 30
0.0
 11
31.27109223269693
 21
5.301570017887234
 31
0.0
  0
LINE
  5
37C
330
301
100
AcDbEntity
  8
LAYER002
  6
Continuous
 62
     2
100
AcDbLine
 10
28.37274628543122
 20
6.011584361148944
 30
0.0
 11
31.27109223269693
 21
6.011584361148944
 31
0.0
  0
LINE
  5
37D
330
301
100
AcDbEntity
  8
LAYER002
  6
Continuous
 62
     2
100
AcDbLine
 10
28.37274628543122
 20
6.011584361148944
 30
0.0
 11
28.37274628543122
 21
5.301570017887234
 31
0.0
  0
LINE
  5
37E
330
301
100
AcDbEntity
  8
LAYER002
  6
Continuous
 62
     2
100
AcDbLine
 10
28.37274628543122
 20
5.301570017887234
 30
0.0
 11
29.52107697390784
 21
5.301570017887234
 31
0.0
  0
LINE
  5
37F
330
301
100
AcDbEntity
  8
LAYER002
  6
Continuous
 62
     2
100
AcDbLine
 10
29.52107697390784
 20
5.301570017887234
 30
0.0
 11
29.52107697390784
 21
3.601983149601094
 31
0.0
  0
LINE
  5
380
330
301
100
AcDbEntity
  8
LAYER002
  6
Continuous
 62
     2
100
AcDbLine
 10
28.15881339961033
 20
3.532072754738983
 30
0.0
 11
28.24152881482272
 21
2.839331158182814
 31
0.0
  0
LINE
  5
381
330
301
100
AcDbEntity
  8
LAYER002
  6
Continuous
 62
     2
100
AcDbLine
 10
28.24152881482272
 20
2.839331158182814
 30
0.0
 11
31.52974084570062
 21
3.231953493542224
 31
0.0
  0
LINE
  5
382
330
301
100
AcDbEntity
  8
LAYER002
  6
Continuous
 62
     2
100
AcDbLine
 10
31.52974396609534
 20
3.932950099063983
 30
0.0
 11
31.52974396609534
 21
3.231951792789574
 31
0.0
  0
LINE
  5
383
330
301
100
AcDbEntity
  8
LAYER002
  6
Continuous
 62
     2
100
AcDbLine
 10
30.23109894656412
 20
5.301570017887234
 30
0.0
 11
30.23109894656412
 21
3.687426646305194
 31
0.0
  0
LINE
  5
384
330
301
100
AcDbEntity
  8
LAYER002
  6
Continuous
 62
     2
100
AcDbLine
 10
30.23109894656412
 20
5.301570017887234
 30
0.0
 11
31.27109223269693
 21
5.301570017887234
 31
0.0
  0
LINE
  5
385
330
301
100
AcDbEntity
  8
LAYER002
  6
Continuous
 62
     2
100
AcDbLine
 10
38.91008470081542
 20
4.653855842389415
 30
0.0
 11
38.33028633727642
 21
4.222681227319924
 31
0.0
  0
LINE
  5
386
330
301
100
AcDbEntity
  8
LAYER002
  6
Continuous
 62
     2
100
AcDbLine
 10
39.95502782748872
 20
2.527657455404254
 30
0.0
 11
40.53058096608504
 21
2.946241571626543
 31
0.0
  0
LINE
  5
387
330
301
100
AcDbEntity
  8
LAYER002
  6
Continuous
 62
     2
100
AcDbLine
 10
35.07588470769892
 20
2.753648077135373
 30
0.0
 11
39.58583815442342
 21
2.953374208576494
 31
0.0
  0
LINE
  5
388
330
301
100
AcDbEntity
  8
LAYER002
  6
Continuous
 62
     2
100
AcDbLine
 10
34.94297562986754
 20
3.459126452382934
 30
0.0
 11
35.07589139985413
 21
2.753650439985404
 31
0.0
  0
LINE
  5
389
330
301
100
AcDbEntity
  8
LAYER002
  6
Continuous
 62
     2
100
AcDbLine
 10
34.94296378016802
 20
3.459123218295754
 30
0.0
 11
35.97222979488902
 21
3.477731053058374
 31
0.0
  0
LINE
  5
38A
330
301
100
AcDbEntity
  8
LAYER002
  6
Continuous
 62
     2
100
AcDbLine
 10
36.69504115191472
 20
4.976573471637184
 30
0.0
 11
35.97223704629974
 21
3.477730160155264
 31
0.0
  0
LINE
  5
38B
330
301
100
AcDbEntity
  8
LAYER002
  6
Continuous
 62
     2
100
AcDbLine
 10
34.82942658328284
 20
4.976578791690943
 30
0.0
 11
36.69504242800943
 21
4.976578791690943
 31
0.0
  0
LINE
  5
38C
330
301
100
AcDbEntity
  8
LAYER002
  6
Continuous
 62
     2
100
AcDbLine
 10
34.82942658328284
 20
5.686577876163593
 30
0.0
 11
34.82942658328284
 21
4.976578791690943
 31
0.0
  0
LINE
  5
38D
330
301
100
AcDbEntity
  8
LAYER002
  6
Continuous
 62
     2
100
AcDbLine
 10
34.82942658328284
 20
5.686577876163593
 30
0.0
 11
40.47942047976721
 21
5.686577876163593
 31
0.0
  0
LINE
  5
38E
330
301
100
AcDbEntity
  8
LAYER002
  6
Continuous
 62
     2
100
AcDbLine
 10
40.47942047976721
 20
5.686577876163593
 30
0.0
 11
40.47942047976721
 21
4.976578791690943
 31
0.0
  0
LINE
  5
38F
330
301
100
AcDbEntity
  8
LAYER002
  6
Continuous
 62
     2
100
AcDbLine
 10
37.48328095340003
 20
4.976578791690943
 30
0.0
 11
40.47942047976721
 21
4.976578791690943
 31
0.0
  0
LINE
  5
390
330
301
100
AcDbEntity
  8
LAYER002
  6
Continuous
 62
     2
100
AcDbLine
 10
37.48327977432623
 20
4.976577781742545
 30
0.0
 11
36.76740853280524
 21
3.492110809431855
 31
0.0
  0
LINE
  5
391
330
301
100
AcDbEntity
  8
LAYER002
  6
Continuous
 62
     2
100
AcDbLine
 10
36.76741845892653
 20
3.492107063782414
 30
0.0
 11
39.04315437559274
 21
3.533249506353154
 31
0.0
  0
LINE
  5
392
330
301
100
AcDbEntity
  8
LAYER002
  6
Continuous
 62
     2
100
AcDbLine
 10
35.80443268679843
 20
6.276578028751483
 30
0.0
 11
39.50441437625162
 21
6.276578028751483
 31
0.0
  0
LINE
  5
393
330
301
100
AcDbEntity
  8
LAYER002
  6
Continuous
 62
     2
100
AcDbLine
 10
39.50441437625162
 20
6.703314860416522
 30
0.0
 11
39.50441437625162
 21
6.276578028751483
 31
0.0
  0
LINE
  5
394
330
301
100
AcDbEntity
  8
LAYER002
  6
Continuous
 62
     2
100
AcDbLine
 10
40.75026421046231
 20
7.019579892544612
 30
0.0
 11
40.38229469256961
 21
6.382238003356892
 31
0.0
  0
LINE
  5
395
330
301
100
AcDbEntity
  8
LAYER002
  6
Continuous
 62
     2
100
AcDbLine
 10
37.26570588015784
 20
8.633244593692893
 30
0.0
 11
38.04314118289222
 21
8.633244593692893
 31
0.0
  0
LINE
  5
396
330
301
100
AcDbEntity
  8
LAYER002
  6
Continuous
 62
     2
100
AcDbLine
 10
34.55859175945292
 20
7.019581844596753
 30
0.0
 11
34.92656127734563
 21
6.382239955409044
 31
0.0
  0
LINE
  5
397
330
301
100
AcDbEntity
  8
LAYER002
  6
Continuous
 62
     2
100
AcDbLine
 10
35.80443268679843
 20
6.703314860416522
 30
0.0
 11
35.80443268679843
 21
6.276578028751483
 31
0.0
  0
LINE
  5
398
330
301
100
AcDbEntity
  8
LAYER002
  6
Continuous
 62
     2
100
AcDbLine
 10
36.35095673465003
 20
6.986577113224143
 30
0.0
 11
38.95789032840003
 21
6.986577113224143
 31
0.0
  0
LINE
  5
399
330
301
100
AcDbEntity
  8
LAYER002
  6
Continuous
 62
     2
100
AcDbLine
 10
42.15276032351721
 20
8.719910700870624
 30
0.0
 11
42.15276032351721
 21
7.593253214908713
 31
0.0
  0
LINE
  5
39A
330
301
100
AcDbEntity
  8
LAYER002
  6
Continuous
 62
     2
100
AcDbLine
 10
42.15276032351721
 20
8.719910700870624
 30
0.0
 11
42.86275177859534
 21
8.719910700870624
 31
0.0
  0
LINE
  5
39B
330
301
100
AcDbEntity
  8
LAYER002
  6
Continuous
 62
     2
100
AcDbLine
 10
42.86275177859534
 20
8.719910700870624
 30
0.0
 11
42.86275177859534
 21
7.593243678165553
 31
0.0
  0
LINE
  5
39C
330
301
100
AcDbEntity
  8
LAYER002
  6
Continuous
 62
     2
100
AcDbLine
 10
42.86275177859534
 20
7.593243678165553
 30
0.0
 11
43.66441803836093
 21
7.593243678165553
 31
0.0
  0
LINE
  5
39D
330
301
100
AcDbEntity
  8
LAYER002
  6
Continuous
 62
     2
100
AcDbLine
 10
43.66441803836093
 20
7.593243678165553
 30
0.0
 11
43.66441803836093
 21
6.808674891544455
 31
0.0
  0
LINE
  5
39E
330
301
100
AcDbEntity
  8
LAYER002
  6
Continuous
 62
     2
100
AcDbLine
 10
43.61242992699522
 20
4.364841906533374
 30
0.0
 11
44.03675870187052
 21
4.937369944705285
 31
0.0
  0
LINE
  5
39F
330
301
100
AcDbEntity
  8
LAYER002
  6
Continuous
 62
     2
100
AcDbLine
 10
42.86275177859534
 20
5.109614451480984
 30
0.0
 11
42.86275177859534
 21
2.419911463810084
 31
0.0
  0
LINE
  5
3A0
330
301
100
AcDbEntity
  8
LAYER002
  6
Continuous
 62
     2
100
AcDbLine
 10
42.15276032351721
 20
2.419911463810084
 30
0.0
 11
42.86275177859534
 21
2.419911463810084
 31
0.0
  0
LINE
  5
3A1
330
301
100
AcDbEntity
  8
LAYER002
  6
Continuous
 62
     2
100
AcDbLine
 10
42.15276032351721
 20
4.687500079227564
 30
0.0
 11
42.15276032351721
 21
2.419911463810084
 31
0.0
  0
LINE
  5
3A2
330
301
100
AcDbEntity
  8
LAYER002
  6
Continuous
 62
     2
100
AcDbLine
 10
41.03084204469783
 20
4.666819339827513
 30
0.0
 11
41.37283121607782
 21
3.914443177569683
 31
0.0
  0
LINE
  5
3A3
330
301
100
AcDbEntity
  8
LAYER002
  6
Continuous
 62
     2
100
AcDbLine
 10
42.86275994464571
 20
5.109612376806044
 30
0.0
 11
43.39357532810831
 21
4.558380988986964
 31
0.0
  0
LINE
  5
3A4
330
301
100
AcDbEntity
  8
LAYER002
  6
Continuous
 62
     2
100
AcDbLine
 10
41.17775422000161
 20
6.883235056949732
 30
0.0
 11
43.02241974734534
 21
6.883235056949732
 31
0.0
  0
LINE
  5
3A5
330
301
100
AcDbEntity
  8
LAYER002
  6
Continuous
 62
     2
100
AcDbLine
 10
41.17775422000161
 20
7.593253214908713
 30
0.0
 11
41.17775422000161
 21
6.883235056949732
 31
0.0
  0
LINE
  5
3A6
330
301
100
AcDbEntity
  8
LAYER002
  6
Continuous
 62
     2
100
AcDbLine
 10
41.17775422000161
 20
7.593253214908713
 30
0.0
 11
42.15276032351721
 21
7.593253214908713
 31
0.0
  0
LINE
  5
3A7
330
301
100
AcDbEntity
  8
LAYER002
  6
Continuous
 62
     2
100
AcDbLine
 10
44.08107453250162
 20
7.094920237613795
 30
0.0
 11
44.08107453250162
 21
6.384902079654803
 31
0.0
  0
LINE
  5
3A8
330
301
100
AcDbEntity
  8
LAYER002
  6
Continuous
 62
     2
100
AcDbLine
 10
44.08107453250162
 20
7.094920237613795
 30
0.0
 11
45.18608551882971
 21
7.094920237613795
 31
0.0
  0
LINE
  5
3A9
330
301
100
AcDbEntity
  8
LAYER002
  6
Continuous
 62
     2
100
AcDbLine
 10
45.18608551882971
 20
8.611586649967303
 30
0.0
 11
45.18608551882971
 21
7.094920237613795
 31
0.0
  0
LINE
  5
3AA
330
301
100
AcDbEntity
  8
LAYER002
  6
Continuous
 62
     2
100
AcDbLine
 10
45.18608551882971
 20
8.611586649967303
 30
0.0
 11
45.89609223269692
 21
8.611586649967303
 31
0.0
  0
LINE
  5
3AB
330
301
100
AcDbEntity
  8
LAYER002
  6
Continuous
 62
     2
100
AcDbLine
 10
45.89609223269692
 20
8.611586649967303
 30
0.0
 11
45.89609223269692
 21
7.094920237613795
 31
0.0
  0
LINE
  5
3AC
330
301
100
AcDbEntity
  8
LAYER002
  6
Continuous
 62
     2
100
AcDbLine
 10
45.89609223269692
 20
7.094920237613795
 30
0.0
 11
47.13109284304843
 21
7.094920237613795
 31
0.0
  0
LINE
  5
3AD
330
301
100
AcDbEntity
  8
LAYER002
  6
Continuous
 62
     2
100
AcDbLine
 10
47.13109284304843
 20
7.094920237613795
 30
0.0
 11
47.13109284304843
 21
6.384902079654803
 31
0.0
  0
LINE
  5
3AE
330
301
100
AcDbEntity
  8
LAYER002
  6
Continuous
 62
     2
100
AcDbLine
 10
45.89609223269692
 20
6.384902079654803
 30
0.0
 11
47.13109284304843
 21
6.384902079654803
 31
0.0
  0
LINE
  5
3AF
330
301
100
AcDbEntity
  8
LAYER002
  6
Continuous
 62
     2
100
AcDbLine
 10
45.89609223269692
 20
6.384902079654803
 30
0.0
 11
45.89609223269692
 21
3.433253367496604
 31
0.0
  0
LINE
  5
3B0
330
301
100
AcDbEntity
  8
LAYER002
  6
Continuous
 62
     2
100
AcDbLine
 10
45.89609223269692
 20
3.433253367496604
 30
0.0
 11
47.26109772586093
 21
3.433253367496604
 31
0.0
  0
LINE
  5
3B1
330
301
100
AcDbEntity
  8
LAYER002
  6
Continuous
 62
     2
100
AcDbLine
 10
47.26109772586093
 20
3.433253367496604
 30
0.0
 11
47.26109772586093
 21
2.723235209537623
 31
0.0
  0
LINE
  5
3B2
330
301
100
AcDbEntity
  8
LAYER002
  6
Continuous
 62
     2
100
AcDbLine
 10
43.64774018191562
 20
2.723235209537623
 30
0.0
 11
47.26109772586093
 21
2.723235209537623
 31
0.0
  0
LINE
  5
3B3
330
301
100
AcDbEntity
  8
LAYER002
  6
Continuous
 62
     2
100
AcDbLine
 10
43.64774018191562
 20
3.433253367496604
 30
0.0
 11
43.64774018191562
 21
2.723235209537623
 31
0.0
  0
LINE
  5
3B4
330
301
100
AcDbEntity
  8
LAYER002
  6
Continuous
 62
     2
100
AcDbLine
 10
43.64774018191562
 20
3.433253367496604
 30
0.0
 11
45.18608551882971
 21
3.433253367496604
 31
0.0
  0
LINE
  5
3B5
330
301
100
AcDbEntity
  8
LAYER002
  6
Continuous
 62
     2
100
AcDbLine
 10
45.18608551882971
 20
6.384902079654803
 30
0.0
 11
45.18608551882971
 21
3.433253367496604
 31
0.0
  0
LINE
  5
3B6
330
301
100
AcDbEntity
  8
LAYER002
  6
Continuous
 62
     2
100
AcDbLine
 10
44.08107453250162
 20
6.384902079654803
 30
0.0
 11
45.18608551882971
 21
6.384902079654803
 31
0.0
  0
ARC
  5
3B7
330
301
100
AcDbEntity
  8
LAYER002
  6
Continuous
 62
     2
100
AcDbCircle
 10
13.50691681765784
 20
3.403245051456563
 30
0.0
 40
0.5499999523162842
100
AcDbArc
 50
269.9999974955215
 51
0.0
  0
ARC
  5
3B8
330
301
100
AcDbEntity
  8
LAYER002
  6
Continuous
 62
     2
100
AcDbCircle
 10
13.13858490847812
 20
3.771577914310574
 30
0.0
 40
0.2083333283662796
100
AcDbArc
 50
269.9999974955215
 51
0.0
  0
ARC
  5
3B9
330
301
100
AcDbEntity
  8
LAYER002
  6
Continuous
 62
     2
100
AcDbCircle
 10
22.52634125613443
 20
12.23795994098293
 30
0.0
 40
5.372136116027832
100
AcDbArc
 50
222.1444614909359
 51
256.2588863195073
  0
ARC
  5
3BA
330
301
100
AcDbEntity
  8
LAYER002
  6
Continuous
 62
     2
100
AcDbCircle
 10
22.52634125613443
 20
12.23795994098293
 30
0.0
 40
6.082136154174804
100
AcDbArc
 50
245.5031073957324
 51
254.3174801800118
  0
ARC
  5
3BB
330
301
100
AcDbEntity
  8
LAYER002
  6
Continuous
 62
     2
100
AcDbCircle
 10
14.28349762820471
 20
5.747054179264186
 30
0.0
 40
5.320183277130126
100
AcDbArc
 50
334.4791825813554
 51
347.9156954949183
  0
ARC
  5
3BC
330
301
100
AcDbEntity
  8
LAYER002
  6
Continuous
 62
     2
100
AcDbCircle
 10
14.28349762820471
 20
5.747054179264186
 30
0.0
 40
6.030182838439941
100
AcDbArc
 50
337.6594040362786
 51
346.9029807853597
  0
ARC
  5
3BD
330
301
100
AcDbEntity
  8
LAYER002
  6
Continuous
 62
     2
100
AcDbCircle
 10
12.81358796023593
 20
2.786131938053244
 30
0.0
 40
3.729733943939208
100
AcDbArc
 50
10.32958963371841
 51
25.49006619945446
  0
ARC
  5
3BE
330
301
100
AcDbEntity
  8
LAYER002
  6
Continuous
 62
     2
100
AcDbCircle
 10
12.81358796023593
 20
2.786131938053244
 30
0.0
 40
4.439733982086181
100
AcDbArc
 50
8.663732962135213
 51
24.711805417119
  0
ARC
  5
3BF
330
301
100
AcDbEntity
  8
LAYER002
  6
Continuous
 62
     2
100
AcDbCircle
 10
13.78250580691562
 20
12.23795994098293
 30
0.0
 40
6.082136154174804
100
AcDbArc
 50
285.6825762827356
 51
294.4968944255018
  0
ARC
  5
3C0
330
301
100
AcDbEntity
  8
LAYER002
  6
Continuous
 62
     2
100
AcDbCircle
 10
13.78250580691562
 20
12.23795994098293
 30
0.0
 40
5.372136116027832
100
AcDbArc
 50
283.7411769734292
 51
317.8555403302988
  0
ARC
  5
3C1
330
301
100
AcDbEntity
  8
LAYER002
  6
Continuous
 62
     2
100
AcDbCircle
 10
22.52634125613443
 20
12.23795994098293
 30
0.0
 40
6.082136154174804
100
AcDbArc
 50
224.0434453254956
 51
239.7017359600208
  0
ARC
  5
3C2
330
301
100
AcDbEntity
  8
LAYER002
  6
Continuous
 62
     2
100
AcDbCircle
 10
13.78250580691562
 20
12.23795994098293
 30
0.0
 40
6.082136154174804
100
AcDbArc
 50
300.2982590310246
 51
315.9565564957384
  0
ARC
  5
3C3
330
301
100
AcDbEntity
  8
LAYER002
  6
Continuous
 62
     2
100
AcDbCircle
 10
21.16273957156412
 20
8.914637644840354
 30
0.0
 40
3.217607975006103
100
AcDbArc
 50
322.0663758592737
 51
352.625044333298
  0
ARC
  5
3C4
330
301
100
AcDbEntity
  8
LAYER002
  6
Continuous
 62
     2
100
AcDbCircle
 10
20.99936371707193
 20
8.697199900699732
 30
0.0
 40
3.927608013153076
100
AcDbArc
 50
345.9682019493255
 51
354.3265528848011
  0
ARC
  5
3C5
330
301
100
AcDbEntity
  8
LAYER002
  6
Continuous
 62
     2
100
AcDbCircle
 10
30.29213410281412
 20
6.916077693058124
 30
0.0
 40
4.233608722686767
100
AcDbArc
 50
198.9690832219489
 51
234.0844654431962
  0
ARC
  5
3C6
330
301
100
AcDbEntity
  8
LAYER002
  6
Continuous
 62
     2
100
AcDbCircle
 10
30.92395478152503
 20
6.401846964908713
 30
0.0
 40
5.091485500335693
100
AcDbArc
 50
197.6107088601952
 51
225.0467318126794
  0
ARC
  5
3C7
330
301
100
AcDbEntity
  8
LAYER002
  6
Continuous
 62
     2
100
AcDbCircle
 10
19.60806733035312
 20
7.198464472843284
 30
0.0
 40
6.229516983032226
100
AcDbArc
 50
315.0119652391877
 51
337.4449600020024
  0
ARC
  5
3C8
330
301
100
AcDbEntity
  8
LAYER002
  6
Continuous
 62
     2
100
AcDbCircle
 10
19.97888642215002
 20
7.529360850406764
 30
0.0
 40
5.519516944885253
100
AcDbArc
 50
310.7174394023128
 51
338.8728230008243
  0
ARC
  5
3C9
330
301
100
AcDbEntity
  8
LAYER002
  6
Continuous
 62
     2
100
AcDbCircle
 10
20.99936371707193
 20
8.697199900699732
 30
0.0
 40
3.927608013153076
100
AcDbArc
 50
323.8455240248456
 51
334.9611992763674
  0
ARC
  5
3CA
330
301
100
AcDbEntity
  8
LAYER002
  6
Continuous
 62
     2
100
AcDbCircle
 10
26.25305634402503
 20
8.035048564029803
 30
0.0
 40
3.447182178497314
100
AcDbArc
 50
202.6072108041131
 51
228.6792723001023
  0
ARC
  5
3CB
330
301
100
AcDbEntity
  8
LAYER002
  6
Continuous
 62
     2
100
AcDbCircle
 10
26.25305634402503
 20
8.035048564029803
 30
0.0
 40
4.157182216644287
100
AcDbArc
 50
220.2699570543613
 51
229.5083479823146
  0
ARC
  5
3CC
330
301
100
AcDbEntity
  8
LAYER002
  6
Continuous
 62
     2
100
AcDbCircle
 10
16.81911164187662
 20
7.032088358951686
 30
0.0
 40
5.879472732543945
100
AcDbArc
 50
327.0342114992449
 51
340.7865378458767
  0
ARC
  5
3CD
330
301
100
AcDbEntity
  8
LAYER002
  6
Continuous
 62
     2
100
AcDbCircle
 10
17.30801850222812
 20
7.832917292667502
 30
0.0
 40
5.169472694396972
100
AcDbArc
 50
322.5178001369925
 51
347.4531482541359
  0
ARC
  5
3CE
330
301
100
AcDbEntity
  8
LAYER002
  6
Continuous
 62
     2
100
AcDbCircle
 10
30.80913239382971
 20
6.243247111393085
 30
0.0
 40
3.014348506927489
100
AcDbArc
 50
27.53130409140616
 51
39.73991206296702
  0
ARC
  5
3CF
330
301
100
AcDbEntity
  8
LAYER002
  6
Continuous
 62
     2
100
AcDbCircle
 10
30.80913239382971
 20
6.243247111393085
 30
0.0
 40
3.67372441291809
100
AcDbArc
 50
19.17154016054552
 51
36.20145060117149
  0
ARC
  5
3D0
330
301
100
AcDbEntity
  8
LAYER002
  6
Continuous
 62
     2
100
AcDbCircle
 10
45.46216278933752
 20
7.791297038150904
 30
0.0
 40
13.12135219573975
100
AcDbArc
 50
183.7786332248138
 51
198.5130041703103
  0
ARC
  5
3D1
330
301
100
AcDbEntity
  8
LAYER002
  6
Continuous
 62
     2
100
AcDbCircle
 10
33.25845795535312
 20
3.704913218570824
 30
0.0
 40
0.2516608834266663
100
AcDbArc
 50
198.51300417031
 51
345.4535873227269
  0
ARC
  5
3D2
330
301
100
AcDbEntity
  8
LAYER002
  6
Continuous
 62
     2
100
AcDbCircle
 10
33.26858979129062
 20
3.212852557254905
 30
0.0
 40
0.7929474711418152
100
AcDbArc
 50
200.5801609226152
 51
337.4535882384713
  0
ARC
  5
3D3
330
301
100
AcDbEntity
  8
LAYER002
  6
Continuous
 62
     2
100
AcDbCircle
 10
45.46216278933752
 20
7.791297038150904
 30
0.0
 40
13.81774616241455
100
AcDbArc
 50
183.5879616639438
 51
200.580160922615
  0
ARC
  5
3D4
330
301
100
AcDbEntity
  8
LAYER002
  6
Continuous
 62
     2
100
AcDbCircle
 10
28.06259613894693
 20
18.71447094256984
 30
0.0
 40
15.18270206451416
100
AcDbArc
 50
270.3631108423682
 51
275.512458759533
  0
ARC
  5
3D5
330
301
100
AcDbEntity
  8
LAYER002
  6
Continuous
 62
     2
100
AcDbCircle
 10
28.06259613894693
 20
18.71447094256984
 30
0.0
 40
15.18270206451416
100
AcDbArc
 50
278.2114694817656
 51
283.2006289723249
  0
ARC
  5
3D6
330
301
100
AcDbEntity
  8
LAYER002
  6
Continuous
 62
     2
100
AcDbCircle
 10
26.23299103640784
 20
-8.999166886257057
 30
0.0
 40
18.63099098205566
100
AcDbArc
 50
39.87824388422735
 51
47.1227215934419
  0
ARC
  5
3D7
330
301
100
AcDbEntity
  8
LAYER002
  6
Continuous
 62
     2
100
AcDbCircle
 10
26.23299103640784
 20
-8.999166886257057
 30
0.0
 40
17.92099189758301
100
AcDbArc
 50
44.37206781089346
 51
47.54314705761221
  0
ARC
  5
3D8
330
301
100
AcDbEntity
  8
LAYER002
  6
Continuous
 62
     2
100
AcDbCircle
 10
26.23299103640784
 20
-8.999166886257057
 30
0.0
 40
17.92099189758301
100
AcDbArc
 50
40.03105229143296
 51
41.83268202465821
  0
ARC
  5
3D9
330
301
100
AcDbEntity
  8
LAYER002
  6
Continuous
 62
     2
100
AcDbCircle
 10
42.02634125613442
 20
12.23795994098293
 30
0.0
 40
6.082136154174804
100
AcDbArc
 50
245.5031073957324
 51
254.31749384039
  0
ARC
  5
3DA
330
301
100
AcDbEntity
  8
LAYER002
  6
Continuous
 62
     2
100
AcDbCircle
 10
42.02634125613442
 20
12.23795994098293
 30
0.0
 40
5.372136116027832
100
AcDbArc
 50
222.1444614909359
 51
256.2588999798852
  0
ARC
  5
3DB
330
301
100
AcDbEntity
  8
LAYER002
  6
Continuous
 62
     2
100
AcDbCircle
 10
33.28250580691562
 20
12.23795994098293
 30
0.0
 40
5.372136116027832
100
AcDbArc
 50
283.7411906338083
 51
317.8555403302988
  0
ARC
  5
3DC
330
301
100
AcDbEntity
  8
LAYER002
  6
Continuous
 62
     2
100
AcDbCircle
 10
33.28250580691562
 20
12.23795994098293
 30
0.0
 40
6.082136154174804
100
AcDbArc
 50
285.6825899431134
 51
294.4968944255018
  0
ARC
  5
3DD
330
301
100
AcDbEntity
  8
LAYER002
  6
Continuous
 62
     2
100
AcDbCircle
 10
42.02634125613442
 20
12.23795994098293
 30
0.0
 40
6.082136154174804
100
AcDbArc
 50
224.0434453254956
 51
239.7017359600208
  0
ARC
  5
3DE
330
301
100
AcDbEntity
  8
LAYER002
  6
Continuous
 62
     2
100
AcDbCircle
 10
33.28250580691562
 20
12.23795994098293
 30
0.0
 40
6.082136154174804
100
AcDbArc
 50
300.2982590310246
 51
315.9565564957384
  0
ARC
  5
3DF
330
301
100
AcDbEntity
  8
LAYER002
  6
Continuous
 62
     2
100
AcDbCircle
 10
34.12128144168122
 20
12.01042087848293
 30
0.0
 40
10.86874961853027
100
AcDbArc
 50
325.4612838201877
 51
331.4062258322538
  0
ARC
  5
3E0
330
301
100
AcDbEntity
  8
LAYER002
  6
Continuous
 62
     2
100
AcDbCircle
 10
45.70247345828284
 20
7.661210139347193
 30
0.0
 40
3.192793846130371
100
AcDbArc
 50
214.5991241940663
 51
238.5529937642723
  0
ARC
  5
3E1
330
301
100
AcDbEntity
  8
LAYER002
  6
Continuous
 62
     2
100
AcDbCircle
 10
44.70763092898593
 20
5.823775370670436
 30
0.0
 40
1.824270844459533
100
AcDbArc
 50
223.9190675807108
 51
233.1051392596223
  0
ARC
  5
3E2
330
301
100
AcDbEntity
  8
LAYER002
  6
Continuous
 62
     2
100
AcDbCircle
 10
34.12128144168122
 20
12.01042087848293
 30
0.0
 40
10.86874961853027
100
AcDbArc
 50
311.8507112195895
 51
317.6421276545865
  0
ARC
  5
3E3
330
301
100
AcDbEntity
  8
LAYER002
  6
Continuous
 62
     2
100
AcDbCircle
 10
37.66595917605622
 20
9.693362315250514
 30
0.0
 40
6.048844814300537
100
AcDbArc
 50
303.7992056788037
 51
332.3174413694252
  0
MTEXT
  5
3E4
330
301
100
AcDbEntity
  8
LAYER010
  6
Continuous
 62
    10
100
AcDbMText
 10
4.593472289122843
 20
9.602118571354026
 30
0.0
 40
2.5
 41
85.83431254504825
 71
     7
 72
     5
  1
\W1.11767;明日に向かう。街／路とともに
 73
     1
 44
1.0
1001
ACAD
1000
MTEXTBEGIN
1070
    73
1070
     1
1070
    44
1040
1.0
1070
    74
1070
     0
1000
MTEXTEND
  0
MTEXT
  5
3E5
330
301
100
AcDbEntity
  8
LAYER010
  6
Continuous
 62
    10
100
AcDbMText
 10
27.90442353152503
 20
0.8999996977578348
 30
0.0
 40
1.799999952316284
 41
266.3999929428101
 71
     5
 72
     5
  3
{\W0.706799;\U+ff2f\U+ff33\U+ff21\U+ff2b\U+ff21\U+ff08\U+ff10\U+ff16\U+ff09\U+ff16\U+ff12\U+ff15\U+ff12\U+ff0d\U+ff13\U+ff16\U+ff19\U+ff11\U+3000\U+ff34\U+ff2f\U+ff2b\U+ff39\U+ff2f\U+ff08\U+ff10\U+ff13\U+ff09\U+ff13\U+ff14\U+ff13\U+ff17\U+ff0d\U+ff10
  1
\U+ff13\U+ff10\U+ff16}
 73
     1
 44
1.0
1001
ACAD
1000
MTEXTBEGIN
1070
    73
1070
     1
1070
    44
1040
1.0
1070
    74
1070
     0
1000
MTEXTEND
  0
LINE
  5
3E6
330
301
100
AcDbEntity
  8
LAYER002
  6
Continuous
 62
     2
100
AcDbLine
 10
9.961918648712526
 20
4.543244441105004
 30
0.0
 11
11.2994278039859
 21
4.543244441105006
 31
0.0
  0
LINE
  5
3E7
330
301
100
AcDbEntity
  8
LAYER002
  6
Continuous
 62
     2
100
AcDbLine
 10
12.00941925906412
 20
4.543244441105004
 30
0.0
 11
13.34692841433752
 21
4.543244441105004
 31
0.0
  0
POINT
  5
3E8
330
301
100
AcDbEntity
  8
0
  6
Continuous
100
AcDbPoint
 10
11.65442353152502
 20
4.543244441105004
 30
0.0
  0
ENDBLK
  5
3E9
330
301
100
AcDbEntity
  8
0
100
AcDbBlockEnd
  0
BLOCK
  5
4EF
330
3FC
100
AcDbEntity
  8
0
100
AcDbBlockBegin
  2
表題HP用
 70
     2
 10
0.0
 20
0.0
 30
0.0
  3
表題HP用
  1

  0
LWPOLYLINE
  5
3FD
330
3FC
100
AcDbEntity
  8
AM_0
 62
     1
370
    70
100
AcDbPolyline
 90
        4
 70
     1
 43
0.0
 10
-385.0000006512014
 20
-0.0000002397141543
 10
-0.0000006512013897
 20
-0.0000002397141543
 10
-0.0000006512013897
 20
14.99999976028584
 10
-385.0000006512014
 20
14.99999976028589
1001
GENIUS_GENREC_14
1002
{
1000
PYDIR
1011
-385.0000006512014
1021
14.99999976028584
1031
0.0
1002
}
1002
{
1000
PXDIR
1011
-0.0000006512013897
1021
-0.0000002397141543
1031
0.0
1002
}
1002
{
1000
PORI
1011
-385.0000006512014
1021
-0.0000002397141543
1031
0.0
1002
}
1002
{
1000
PINS
1011
-385.0000006512014
1021
-0.0000002397141543
1031
0.0
1002
}
1002
{
1000
PINS2
1011
-0.0000006512013897
1021
14.99999976028584
1031
0.0
1002
}
1002
{
1000
C
1070
     1
1002
}
1001
GENIUS_GENODEF_13
1002
{
1000
HIER
1070
     0
1002
}
1002
{
1000
MANEDIT
1070
     0
1002
}
1002
{
1000
NOSEL
1070
     0
1002
}
1002
{
1000
BEHIND
1070
     0
1002
}
1002
{
1000
OTHER
1070
     0
1002
}
1002
{
1000
REACTOR
1002
}
1001
GENIUS_GENOBJ-N-REC_13
1002
{
1000
OWNER
1000
GEN
1002
}
  0
LINE
  5
3FE
330
3FC
100
AcDbEntity
  8
AM_0
 62
     1
370
    70
100
AcDbLine
 10
-267.428479925517
 20
14.99999976028588
 30
0.0
 11
-267.428479925517
 21
-0.0000002397141472
 31
0.0
  0
LINE
  5
3FF
330
3FC
100
AcDbEntity
  8
AM_0
 62
     1
370
    70
100
AcDbLine
 10
-207.428479925517
 20
14.99999976028587
 30
0.0
 11
-207.428479925517
 21
-0.0000002397141472
 31
0.0
  0
LINE
  5
400
330
3FC
100
AcDbEntity
  8
AM_0
 62
     1
370
    70
100
AcDbLine
 10
-120.2825557805456
 20
14.99999976028587
 30
0.0
 11
-120.2825557805456
 21
-0.0000002397141472
 31
0.0
  0
TEXT
  5
401
330
3FC
100
AcDbEntity
  8
AM_BOR
370
    13
100
AcDbText
 10
-382.0
 20
11.0
 30
0.0
 40
3.0
  1
備　　考
  7
スタイル1
100
AcDbText
  0
TEXT
  5
402
330
3FC
100
AcDbEntity
  8
AM_BOR
370
    13
100
AcDbText
 10
-207.2378338645648
 20
11.00000000000002
 30
0.0
 40
3.0
  1
日　　付
  7
スタイル1
 72
     1
 11
-199.9764702282011
 21
11.00000000000002
 31
0.0
100
AcDbText
  0
TEXT
  5
403
330
3FC
100
AcDbEntity
  8
AM_BOR
370
    13
100
AcDbText
 10
-160.9849343002148
 20
11.00000000000002
 30
0.0
 40
3.0
  1
縮　尺
  7
スタイル1
100
AcDbText
  0
TEXT
  5
404
330
3FC
100
AcDbEntity
  8
AM_BOR
370
    13
100
AcDbText
 10
-119.4825557805457
 20
11.00000000000002
 30
0.0
 40
3.0
  1
品　番
  7
スタイル1
100
AcDbText
  0
LINE
  5
405
330
3FC
100
AcDbEntity
  8
LAYER001
  6
Continuous
 62
     1
100
AcDbLine
 10
-375.6569430394113
 20
14.99999976028586
 30
0.0
 11
-0.0000006512013897
 21
14.99999976028584
 31
0.0
  0
ATTDEF
  5
406
330
3FC
100
AcDbEntity
  8
AM_BOR
370
    13
100
AcDbText
 10
-117.4996568009408
 20
2.999999760285852
 30
0.0
 40
3.5
  1

  7
スタイル1
100
AcDbAttributeDefinition
  3
図面ファイル名
  2
GEN-TITLE-DWG
 70
     0
  0
ATTDEF
  5
407
330
3FC
100
AcDbEntity
  8
AM_BOR
370
    13
100
AcDbText
 10
-202.7524928718103
 20
2.999999760285861
 30
0.0
 40
3.5
  1

  7
スタイル1
100
AcDbAttributeDefinition
  3
完成日時
  2
GEN-TITLE-DAT
 70
     0
  0
ATTDEF
  5
408
330
3FC
100
AcDbEntity
  8
AM_BOR
370
    13
100
AcDbText
 10
-158.8427863072958
 20
2.999999760285852
 30
0.0
 40
3.5
  1

  7
スタイル1
100
AcDbAttributeDefinition
  3
尺度係数
  2
GEN-TITLE-SCA
 70
     0
  0
LINE
  5
409
330
3FC
100
AcDbEntity
  8
AM_0
 62
     1
370
    70
100
AcDbLine
 10
-162.8370435853013
 20
14.99999976028587
 30
0.0
 11
-162.8370435853013
 21
-0.0000002397141472
 31
0.0
  0
LINE
  5
40A
330
3FC
100
AcDbEntity
  8
LAYER002
  6
Continuous
 62
     2
100
AcDbLine
 10
-252.886951990155
 20
10.40764234251287
 30
0.0
 11
-252.886951990155
 21
9.974307991926945
 31
0.0
  0
LINE
  5
40B
330
3FC
100
AcDbEntity
  8
LAYER002
  6
Continuous
 62
     2
100
AcDbLine
 10
-252.886951990155
 20
9.974307991926945
 30
0.0
 11
-250.4386182499207
 21
9.974307991926945
 31
0.0
  0
LINE
  5
40C
330
3FC
100
AcDbEntity
  8
LAYER002
  6
Continuous
 62
     2
100
AcDbLine
 10
-250.4386182499207
 20
9.974307991926945
 30
0.0
 11
-250.4386182499207
 21
9.264308907454285
 31
0.0
  0
LINE
  5
40D
330
3FC
100
AcDbEntity
  8
LAYER002
  6
Continuous
 62
     2
100
AcDbLine
 10
-251.5544629764832
 20
9.264308907454285
 30
0.0
 11
-250.4386182499207
 21
9.264308907454285
 31
0.0
  0
LINE
  5
40E
330
3FC
100
AcDbEntity
  8
LAYER002
  6
Continuous
 62
     2
100
AcDbLine
 10
-251.554472067377
 20
9.264312049921535
 30
0.0
 11
-251.9866163300571
 21
8.457642737766967
 31
0.0
  0
LINE
  5
40F
330
3FC
100
AcDbEntity
  8
LAYER002
  6
Continuous
 62
     2
100
AcDbLine
 10
-252.3599310863271
 20
9.264302433483944
 30
0.0
 11
-252.7920717462438
 21
8.457639846487875
 31
0.0
  0
LINE
  5
410
330
3FC
100
AcDbEntity
  8
LAYER002
  6
Continuous
 62
     2
100
AcDbLine
 10
-254.2106366825379
 20
9.264308907454285
 30
0.0
 11
-252.3599286747254
 21
9.264308907454285
 31
0.0
  0
LINE
  5
411
330
3FC
100
AcDbEntity
  8
LAYER002
  6
Continuous
 62
     2
100
AcDbLine
 10
-254.2106419240217
 20
9.264305238760766
 30
0.0
 11
-253.7784976613416
 21
8.457635926606197
 31
0.0
  0
LINE
  5
412
330
3FC
100
AcDbEntity
  8
LAYER002
  6
Continuous
 62
     2
100
AcDbLine
 10
-255.0160973402082
 20
9.264308130039875
 30
0.0
 11
-254.5839566802917
 21
8.457645543043806
 31
0.0
  0
LINE
  5
413
330
3FC
100
AcDbEntity
  8
LAYER002
  6
Continuous
 62
     2
100
AcDbLine
 10
-256.1319471073425
 20
9.264308907454285
 30
0.0
 11
-255.01610238078
 21
9.264308907454285
 31
0.0
  0
LINE
  5
414
330
3FC
100
AcDbEntity
  8
LAYER002
  6
Continuous
 62
     2
100
AcDbLine
 10
-256.1319471073425
 20
9.974307991926945
 30
0.0
 11
-256.1319471073425
 21
9.264308907454285
 31
0.0
  0
LINE
  5
415
330
3FC
100
AcDbEntity
  8
LAYER002
  6
Continuous
 62
     2
100
AcDbLine
 10
-256.1319471073425
 20
9.974307991926945
 30
0.0
 11
-253.6836133671081
 21
9.974307991926945
 31
0.0
  0
LINE
  5
416
330
3FC
100
AcDbEntity
  8
LAYER002
  6
Continuous
 62
     2
100
AcDbLine
 10
-253.6836133671081
 20
10.40764234251287
 30
0.0
 11
-253.6836133671081
 21
9.974307991926945
 31
0.0
  0
LINE
  5
417
330
3FC
100
AcDbEntity
  8
LAYER002
  6
Continuous
 62
     2
100
AcDbLine
 10
-253.6836133671081
 20
10.40764234251287
 30
0.0
 11
-252.886951990155
 21
10.40764234251287
 31
0.0
  0
LINE
  5
418
330
3FC
100
AcDbEntity
  8
LAYER002
  6
Continuous
 62
     2
100
AcDbLine
 10
-256.2836042118347
 20
8.457641579573426
 30
0.0
 11
-256.2836042118347
 21
6.707643486922055
 31
0.0
  0
LINE
  5
419
330
3FC
100
AcDbEntity
  8
LAYER002
  6
Continuous
 62
     2
100
AcDbLine
 10
-256.2836042118347
 20
8.457641579573426
 30
0.0
 11
-250.2869611454284
 21
8.457641579573426
 31
0.0
  0
LINE
  5
41A
330
3FC
100
AcDbEntity
  8
LAYER002
  6
Continuous
 62
     2
100
AcDbLine
 10
-250.2869611454284
 20
8.457641579573426
 30
0.0
 11
-250.2869611454284
 21
6.707643486922055
 31
0.0
  0
LINE
  5
41B
330
3FC
100
AcDbEntity
  8
LAYER002
  6
Continuous
 62
     2
100
AcDbLine
 10
-250.882786340741
 20
6.707643486922055
 30
0.0
 11
-250.2869611454284
 21
6.707643486922055
 31
0.0
  0
LINE
  5
41C
330
3FC
100
AcDbEntity
  8
LAYER002
  6
Continuous
 62
     2
100
AcDbLine
 10
-250.882786340741
 20
6.707643486922055
 30
0.0
 11
-250.882786340741
 21
5.090976693098815
 31
0.0
  0
LINE
  5
41D
330
3FC
100
AcDbEntity
  8
LAYER002
  6
Continuous
 62
     2
100
AcDbLine
 10
-252.1229444217957
 20
4.540976502363955
 30
0.0
 11
-251.4327893924988
 21
4.540976502363955
 31
0.0
  0
LINE
  5
41E
330
3FC
100
AcDbEntity
  8
LAYER002
  6
Continuous
 62
     2
100
AcDbLine
 10
-252.2919874646173
 20
5.250973977516176
 30
0.0
 11
-252.1229408166622
 21
4.540978034353795
 31
0.0
  0
LINE
  5
41F
330
3FC
100
AcDbEntity
  8
LAYER002
  6
Continuous
 62
     2
100
AcDbLine
 10
-252.2919965458191
 20
5.250975586836606
 30
0.0
 11
-251.8011213016785
 21
5.250975586836606
 31
0.0
  0
LINE
  5
420
330
3FC
100
AcDbEntity
  8
LAYER002
  6
Continuous
 62
     2
100
AcDbLine
 10
-251.5927777958191
 20
6.230976082747256
 30
0.0
 11
-251.5927777958191
 21
5.459309555952826
 31
0.0
  0
LINE
  5
421
330
3FC
100
AcDbEntity
  8
LAYER002
  6
Continuous
 62
     2
100
AcDbLine
 10
-254.9777875614441
 20
6.230976082747256
 30
0.0
 11
-254.9777875614441
 21
4.540976502363955
 31
0.0
  0
LINE
  5
422
330
3FC
100
AcDbEntity
  8
LAYER002
  6
Continuous
 62
     2
100
AcDbLine
 10
-255.6877790165222
 20
4.540976502363955
 30
0.0
 11
-254.9777875614441
 21
4.540976502363955
 31
0.0
  0
LINE
  5
423
330
3FC
100
AcDbEntity
  8
LAYER002
  6
Continuous
 62
     2
100
AcDbLine
 10
-255.6877790165222
 20
6.707643486922055
 30
0.0
 11
-255.6877790165222
 21
4.540976502363955
 31
0.0
  0
LINE
  5
424
330
3FC
100
AcDbEntity
  8
LAYER002
  6
Continuous
 62
     2
100
AcDbLine
 10
-256.2836042118347
 20
6.707643486922055
 30
0.0
 11
-255.6877790165222
 21
6.707643486922055
 31
0.0
  0
LINE
  5
425
330
3FC
100
AcDbEntity
  8
LAYER002
  6
Continuous
 62
     2
100
AcDbLine
 10
-255.5736280155457
 20
7.747642495100766
 30
0.0
 11
-255.5736280155457
 21
6.940975167219916
 31
0.0
  0
LINE
  5
426
330
3FC
100
AcDbEntity
  8
LAYER002
  6
Continuous
 62
     2
100
AcDbLine
 10
-255.5736280155457
 20
7.747642495100766
 30
0.0
 11
-253.6402784061706
 21
7.747642495100766
 31
0.0
  0
LINE
  5
427
330
3FC
100
AcDbEntity
  8
LAYER002
  6
Continuous
 62
     2
100
AcDbLine
 10
-253.6402784061706
 20
7.747642495100766
 30
0.0
 11
-253.6402784061706
 21
6.940975167219914
 31
0.0
  0
LINE
  5
428
330
3FC
100
AcDbEntity
  8
LAYER002
  6
Continuous
 62
     2
100
AcDbLine
 10
-253.6402784061707
 20
6.230976082747258
 30
0.0
 11
-253.6402784061706
 21
4.107643105452336
 31
0.0
  0
LINE
  5
429
330
3FC
100
AcDbEntity
  8
LAYER002
  6
Continuous
 62
     2
100
AcDbLine
 10
-252.9302869510925
 20
7.747642495100766
 30
0.0
 11
-252.9302869510925
 21
6.940975167219916
 31
0.0
  0
LINE
  5
42A
330
3FC
100
AcDbEntity
  8
LAYER002
  6
Continuous
 62
     2
100
AcDbLine
 10
-252.9302869510925
 20
6.230976082747256
 30
0.0
 11
-252.9302869510925
 21
4.107643105452336
 31
0.0
  0
LINE
  5
42B
330
3FC
100
AcDbEntity
  8
LAYER002
  6
Continuous
 62
     2
100
AcDbLine
 10
-252.9302869510925
 20
7.747642495100766
 30
0.0
 11
-250.9969373417175
 21
7.747642495100766
 31
0.0
  0
LINE
  5
42C
330
3FC
100
AcDbEntity
  8
LAYER002
  6
Continuous
 62
     2
100
AcDbLine
 10
-250.9969373417175
 20
7.747642495100766
 30
0.0
 11
-250.9969373417175
 21
6.940975167219916
 31
0.0
  0
LINE
  5
42D
330
3FC
100
AcDbEntity
  8
LAYER002
  6
Continuous
 62
     2
100
AcDbLine
 10
-255.5736280155457
 20
6.940975167219916
 30
0.0
 11
-253.6402784061706
 21
6.940975167219914
 31
0.0
  0
LINE
  5
42E
330
3FC
100
AcDbEntity
  8
LAYER002
  6
Continuous
 62
     2
100
AcDbLine
 10
-252.9302869510925
 20
6.940975167219916
 30
0.0
 11
-250.9969373417175
 21
6.940975167219916
 31
0.0
  0
LINE
  5
42F
330
3FC
100
AcDbEntity
  8
LAYER002
  6
Continuous
 62
     2
100
AcDbLine
 10
-253.6402784061706
 20
4.107643105452336
 30
0.0
 11
-252.9302869510925
 21
4.107643105452336
 31
0.0
  0
LINE
  5
430
330
3FC
100
AcDbEntity
  8
LAYER002
  6
Continuous
 62
     2
100
AcDbLine
 10
-247.1740003299988
 20
10.32097623533514
 30
0.0
 11
-246.7852826786316
 21
10.32097623533514
 31
0.0
  0
LINE
  5
431
330
3FC
100
AcDbEntity
  8
LAYER002
  6
Continuous
 62
     2
100
AcDbLine
 10
-246.3965650272644
 20
10.32097623533514
 30
0.0
 11
-246.7852826786316
 21
10.32097623533514
 31
0.0
  0
LINE
  5
432
330
3FC
100
AcDbEntity
  8
LAYER002
  6
Continuous
 62
     2
100
AcDbLine
 10
-243.6894433632041
 20
8.707312472960037
 30
0.0
 11
-244.057412881097
 21
8.069970583772306
 31
0.0
  0
LINE
  5
433
330
3FC
100
AcDbEntity
  8
LAYER002
  6
Continuous
 62
     2
100
AcDbLine
 10
-244.935291833905
 20
8.391046502058774
 30
0.0
 11
-244.935291833905
 21
7.964309670393735
 31
0.0
  0
LINE
  5
434
330
3FC
100
AcDbEntity
  8
LAYER002
  6
Continuous
 62
     2
100
AcDbLine
 10
-244.935291833905
 20
7.964309670393735
 30
0.0
 11
-246.4519544315613
 21
7.964309670393735
 31
0.0
  0
LINE
  5
435
330
3FC
100
AcDbEntity
  8
LAYER002
  6
Continuous
 62
     2
100
AcDbLine
 10
-246.4519544315613
 20
7.964309670393735
 30
0.0
 11
-246.4519544315613
 21
7.374309517805844
 31
0.0
  0
LINE
  5
436
330
3FC
100
AcDbEntity
  8
LAYER002
  6
Continuous
 62
     2
100
AcDbLine
 10
-243.9602857303894
 20
7.374309517805844
 30
0.0
 11
-246.4519544315613
 21
7.374309517805844
 31
0.0
  0
LINE
  5
437
330
3FC
100
AcDbEntity
  8
LAYER002
  6
Continuous
 62
     2
100
AcDbLine
 10
-243.9602857303894
 20
7.374309517805844
 30
0.0
 11
-243.9602857303894
 21
6.664310433333195
 31
0.0
  0
LINE
  5
438
330
3FC
100
AcDbEntity
  8
LAYER002
  6
Continuous
 62
     2
100
AcDbLine
 10
-243.9602857303894
 20
6.664310433333195
 30
0.0
 11
-246.4519544315613
 21
6.664310433333195
 31
0.0
  0
LINE
  5
439
330
3FC
100
AcDbEntity
  8
LAYER002
  6
Continuous
 62
     2
100
AcDbLine
 10
-246.4519544315613
 20
6.664310433333195
 30
0.0
 11
-246.4519544315613
 21
5.142642952864445
 31
0.0
  0
LINE
  5
43A
330
3FC
100
AcDbEntity
  8
LAYER002
  6
Continuous
 62
     2
100
AcDbLine
 10
-245.8551221561706
 20
5.142642952864445
 30
0.0
 11
-246.4519544315613
 21
5.142642952864445
 31
0.0
  0
LINE
  5
43B
330
3FC
100
AcDbEntity
  8
LAYER002
  6
Continuous
 62
     2
100
AcDbLine
 10
-245.4539148252353
 20
6.321002407672445
 30
0.0
 11
-244.7828792315311
 21
6.068342224920636
 31
0.0
  0
LINE
  5
43C
330
3FC
100
AcDbEntity
  8
LAYER002
  6
Continuous
 62
     2
100
AcDbLine
 10
-243.8086286258972
 20
5.142642952864445
 30
0.0
 11
-245.0786481571472
 21
5.142642952864445
 31
0.0
  0
LINE
  5
43D
330
3FC
100
AcDbEntity
  8
LAYER002
  6
Continuous
 62
     2
100
AcDbLine
 10
-243.8086286258972
 20
5.142642952864445
 30
0.0
 11
-243.8086286258972
 21
4.432642914717465
 31
0.0
  0
LINE
  5
43E
330
3FC
100
AcDbEntity
  8
LAYER002
  6
Continuous
 62
     2
100
AcDbLine
 10
-243.8086286258972
 20
4.432642914717465
 30
0.0
 11
-249.761936731366
 21
4.432642914717465
 31
0.0
  0
LINE
  5
43F
330
3FC
100
AcDbEntity
  8
LAYER002
  6
Continuous
 62
     2
100
AcDbLine
 10
-249.761936731366
 20
5.142642952864445
 30
0.0
 11
-249.761936731366
 21
4.432642914717465
 31
0.0
  0
LINE
  5
440
330
3FC
100
AcDbEntity
  8
LAYER002
  6
Continuous
 62
     2
100
AcDbLine
 10
-249.761936731366
 20
5.142642952864445
 30
0.0
 11
-248.4568372440612
 21
5.142642952864445
 31
0.0
  0
LINE
  5
441
330
3FC
100
AcDbEntity
  8
LAYER002
  6
Continuous
 62
     2
100
AcDbLine
 10
-248.0929611704677
 20
6.329916672281166
 30
0.0
 11
-248.7594414162459
 21
6.078971681763995
 31
0.0
  0
LINE
  5
442
330
3FC
100
AcDbEntity
  8
LAYER002
  6
Continuous
 62
     2
100
AcDbLine
 10
-247.737049646405
 20
5.142642952864445
 30
0.0
 11
-247.1186109257019
 21
5.142642952864445
 31
0.0
  0
LINE
  5
443
330
3FC
100
AcDbEntity
  8
LAYER002
  6
Continuous
 62
     2
100
AcDbLine
 10
-247.1186109257019
 20
6.664310433333195
 30
0.0
 11
-247.1186109257019
 21
5.142642952864445
 31
0.0
  0
LINE
  5
444
330
3FC
100
AcDbEntity
  8
LAYER002
  6
Continuous
 62
     2
100
AcDbLine
 10
-249.6102796268738
 20
6.664310433333195
 30
0.0
 11
-247.1186109257019
 21
6.664310433333195
 31
0.0
  0
LINE
  5
445
330
3FC
100
AcDbEntity
  8
LAYER002
  6
Continuous
 62
     2
100
AcDbLine
 10
-249.6102796268738
 20
7.374309517805844
 30
0.0
 11
-249.6102796268738
 21
6.664310433333195
 31
0.0
  0
LINE
  5
446
330
3FC
100
AcDbEntity
  8
LAYER002
  6
Continuous
 62
     2
100
AcDbLine
 10
-249.6102796268738
 20
7.374309517805844
 30
0.0
 11
-247.1186109257019
 21
7.374309517805844
 31
0.0
  0
LINE
  5
447
330
3FC
100
AcDbEntity
  8
LAYER002
  6
Continuous
 62
     2
100
AcDbLine
 10
-247.1186109257019
 20
7.964309670393735
 30
0.0
 11
-247.1186109257019
 21
7.374309517805844
 31
0.0
  0
LINE
  5
448
330
3FC
100
AcDbEntity
  8
LAYER002
  6
Continuous
 62
     2
100
AcDbLine
 10
-248.6352735233581
 20
7.964309670393735
 30
0.0
 11
-247.1186109257019
 21
7.964309670393735
 31
0.0
  0
LINE
  5
449
330
3FC
100
AcDbEntity
  8
LAYER002
  6
Continuous
 62
     2
100
AcDbLine
 10
-248.6352735233581
 20
8.391046502058774
 30
0.0
 11
-248.6352735233581
 21
7.964309670393735
 31
0.0
  0
LINE
  5
44A
330
3FC
100
AcDbEntity
  8
LAYER002
  6
Continuous
 62
     2
100
AcDbLine
 10
-249.8811158142136
 20
8.707312547465836
 30
0.0
 11
-249.5131501110182
 21
8.069977265527576
 31
0.0
  0
LINE
  5
44B
330
3FC
100
AcDbEntity
  8
LAYER002
  6
Continuous
 62
     2
100
AcDbLine
 10
-248.0887494755066
 20
8.674308754866395
 30
0.0
 11
-246.7852826786316
 21
8.674308754866395
 31
0.0
  0
LINE
  5
44C
330
3FC
100
AcDbEntity
  8
LAYER002
  6
Continuous
 62
     2
100
AcDbLine
 10
-245.4818158817566
 20
8.674308754866395
 30
0.0
 11
-246.7852826786316
 21
8.674308754866395
 31
0.0
  0
LINE
  5
44D
330
3FC
100
AcDbEntity
  8
LAYER002
  6
Continuous
 62
     2
100
AcDbLine
 10
-243.3269391727722
 20
9.107643105452336
 30
0.0
 11
-243.3269391727722
 21
8.397644020979676
 31
0.0
  0
LINE
  5
44E
330
3FC
100
AcDbEntity
  8
LAYER002
  6
Continuous
 62
     2
100
AcDbLine
 10
-243.3269391727722
 20
9.107643105452336
 30
0.0
 11
-242.5686078739441
 21
9.107643105452336
 31
0.0
  0
LINE
  5
44F
330
3FC
100
AcDbEntity
  8
LAYER002
  6
Continuous
 62
     2
100
AcDbLine
 10
-242.5686078739441
 20
10.40764234251287
 30
0.0
 11
-242.5686078739441
 21
9.107643105452336
 31
0.0
  0
LINE
  5
450
330
3FC
100
AcDbEntity
  8
LAYER002
  6
Continuous
 62
     2
100
AcDbLine
 10
-242.5686078739441
 20
10.40764234251287
 30
0.0
 11
-241.858616418866
 21
10.40764234251287
 31
0.0
  0
LINE
  5
451
330
3FC
100
AcDbEntity
  8
LAYER002
  6
Continuous
 62
     2
100
AcDbLine
 10
-241.858616418866
 20
10.40764234251287
 30
0.0
 11
-241.858616418866
 21
9.107643105452336
 31
0.0
  0
LINE
  5
452
330
3FC
100
AcDbEntity
  8
LAYER002
  6
Continuous
 62
     2
100
AcDbLine
 10
-241.858616418866
 20
9.107643105452336
 30
0.0
 11
-241.2952924442566
 21
9.107643105452336
 31
0.0
  0
LINE
  5
453
330
3FC
100
AcDbEntity
  8
LAYER002
  6
Continuous
 62
     2
100
AcDbLine
 10
-241.2952924442566
 20
9.107643105452336
 30
0.0
 11
-241.2952924442566
 21
8.397644020979676
 31
0.0
  0
LINE
  5
454
330
3FC
100
AcDbEntity
  8
LAYER002
  6
Continuous
 62
     2
100
AcDbLine
 10
-240.585974494237
 20
10.18935116965587
 30
0.0
 11
-240.0319675147364
 21
9.996653092109717
 31
0.0
  0
LINE
  5
455
330
3FC
100
AcDbEntity
  8
LAYER002
  6
Continuous
 62
     2
100
AcDbLine
 10
-240.1299329471862
 20
9.432641961043156
 30
0.0
 11
-239.57860238078
 21
9.432641961043156
 31
0.0
  0
LINE
  5
456
330
3FC
100
AcDbEntity
  8
LAYER002
  6
Continuous
 62
     2
100
AcDbLine
 10
-239.57860238078
 20
10.40764234251287
 30
0.0
 11
-239.57860238078
 21
9.432641961043156
 31
0.0
  0
LINE
  5
457
330
3FC
100
AcDbEntity
  8
LAYER002
  6
Continuous
 62
     2
100
AcDbLine
 10
-239.57860238078
 20
10.40764234251287
 30
0.0
 11
-238.868626184491
 21
10.40764234251287
 31
0.0
  0
LINE
  5
458
330
3FC
100
AcDbEntity
  8
LAYER002
  6
Continuous
 62
     2
100
AcDbLine
 10
-238.868626184491
 20
10.40764234251287
 30
0.0
 11
-238.868626184491
 21
9.432641961043156
 31
0.0
  0
LINE
  5
459
330
3FC
100
AcDbEntity
  8
LAYER002
  6
Continuous
 62
     2
100
AcDbLine
 10
-238.868626184491
 20
9.432641961043156
 30
0.0
 11
-237.4602857303894
 21
9.432641961043156
 31
0.0
  0
LINE
  5
45A
330
3FC
100
AcDbEntity
  8
LAYER002
  6
Continuous
 62
     2
100
AcDbLine
 10
-237.4602857303894
 20
9.432641961043156
 30
0.0
 11
-237.4602857303894
 21
8.722642876570496
 31
0.0
  0
LINE
  5
45B
330
3FC
100
AcDbEntity
  8
LAYER002
  6
Continuous
 62
     2
100
AcDbLine
 10
-238.868626184491
 20
8.722642876570496
 30
0.0
 11
-237.4602857303894
 21
8.722642876570496
 31
0.0
  0
LINE
  5
45C
330
3FC
100
AcDbEntity
  8
LAYER002
  6
Continuous
 62
     2
100
AcDbLine
 10
-238.868626184491
 20
8.722642876570496
 30
0.0
 11
-238.868626184491
 21
7.937643029158387
 31
0.0
  0
LINE
  5
45D
330
3FC
100
AcDbEntity
  8
LAYER002
  6
Continuous
 62
     2
100
AcDbLine
 10
-238.868626184491
 20
7.937643029158387
 30
0.0
 11
-237.243626184491
 21
7.937643029158387
 31
0.0
  0
LINE
  5
45E
330
3FC
100
AcDbEntity
  8
LAYER002
  6
Continuous
 62
     2
100
AcDbLine
 10
-237.243626184491
 20
7.937643029158387
 30
0.0
 11
-237.243626184491
 21
7.227642037337094
 31
0.0
  0
LINE
  5
45F
330
3FC
100
AcDbEntity
  8
LAYER002
  6
Continuous
 62
     2
100
AcDbLine
 10
-238.6512647342957
 20
7.227642037337094
 30
0.0
 11
-237.243626184491
 21
7.227642037337094
 31
0.0
  0
LINE
  5
460
330
3FC
100
AcDbEntity
  8
LAYER002
  6
Continuous
 62
     2
100
AcDbLine
 10
-237.6130409941453
 20
4.486424818574045
 30
0.0
 11
-237.1309759508949
 21
5.175089144601166
 31
0.0
  0
LINE
  5
461
330
3FC
100
AcDbEntity
  8
LAYER002
  6
Continuous
 62
     2
100
AcDbLine
 10
-238.868626184491
 20
6.549159981673035
 30
0.0
 11
-238.868626184491
 21
4.107643105452336
 31
0.0
  0
LINE
  5
462
330
3FC
100
AcDbEntity
  8
LAYER002
  6
Continuous
 62
     2
100
AcDbLine
 10
-239.57860238078
 20
4.107643105452336
 30
0.0
 11
-238.868626184491
 21
4.107643105452336
 31
0.0
  0
LINE
  5
463
330
3FC
100
AcDbEntity
  8
LAYER002
  6
Continuous
 62
     2
100
AcDbLine
 10
-239.57860238078
 20
6.496735550825865
 30
0.0
 11
-239.57860238078
 21
4.107643105452336
 31
0.0
  0
LINE
  5
464
330
3FC
100
AcDbEntity
  8
LAYER002
  6
Continuous
 62
     2
100
AcDbLine
 10
-241.3602751323375
 20
5.033659145315915
 30
0.0
 11
-240.9257817724223
 21
4.482187645648796
 31
0.0
  0
LINE
  5
465
330
3FC
100
AcDbEntity
  8
LAYER002
  6
Continuous
 62
     2
100
AcDbLine
 10
-240.8934064579285
 20
7.227642037337094
 30
0.0
 11
-239.8123059940612
 21
7.227642037337094
 31
0.0
  0
LINE
  5
466
330
3FC
100
AcDbEntity
  8
LAYER002
  6
Continuous
 62
     2
100
AcDbLine
 10
-240.9219403934754
 20
7.937643029158387
 30
0.0
 11
-239.57860238078
 21
7.937643029158387
 31
0.0
  0
LINE
  5
467
330
3FC
100
AcDbEntity
  8
LAYER002
  6
Continuous
 62
     2
100
AcDbLine
 10
-239.57860238078
 20
8.722642876570496
 30
0.0
 11
-239.57860238078
 21
7.937643029158387
 31
0.0
  0
LINE
  5
468
330
3FC
100
AcDbEntity
  8
LAYER002
  6
Continuous
 62
     2
100
AcDbLine
 10
-240.3818402958191
 20
8.722642876570496
 30
0.0
 11
-239.57860238078
 21
8.722642876570496
 31
0.0
  0
LINE
  5
469
330
3FC
100
AcDbEntity
  8
LAYER002
  6
Continuous
 62
     2
100
AcDbLine
 10
-241.2391576714689
 20
8.624352984091867
 30
0.0
 11
-240.7690671388371
 21
8.067781209956226
 31
0.0
  0
LINE
  5
46A
330
3FC
100
AcDbEntity
  8
LAYER002
  6
Continuous
 62
     2
100
AcDbLine
 10
-240.9219403934754
 20
7.937643029158387
 30
0.0
 11
-240.9219403934754
 21
7.227642037337094
 31
0.0
  0
LINE
  5
46B
330
3FC
100
AcDbEntity
  8
LAYER002
  6
Continuous
 62
     2
100
AcDbLine
 10
-241.8689618778504
 20
8.397644020979676
 30
0.0
 11
-241.2952924442566
 21
8.397644020979676
 31
0.0
  0
LINE
  5
46C
330
3FC
100
AcDbEntity
  8
LAYER002
  6
Continuous
 62
     2
100
AcDbLine
 10
-241.3860698899981
 20
6.561242415745645
 30
0.0
 11
-240.9627374590002
 21
7.133862500276684
 31
0.0
  0
LINE
  5
46D
330
3FC
100
AcDbEntity
  8
LAYER002
  6
Continuous
 62
     2
100
AcDbLine
 10
-241.858616418866
 20
7.035619713728696
 30
0.0
 11
-241.858616418866
 21
4.107643105452336
 31
0.0
  0
LINE
  5
46E
330
3FC
100
AcDbEntity
  8
LAYER002
  6
Continuous
 62
     2
100
AcDbLine
 10
-242.5686078739441
 20
4.107643105452336
 30
0.0
 11
-241.858616418866
 21
4.107643105452336
 31
0.0
  0
LINE
  5
46F
330
3FC
100
AcDbEntity
  8
LAYER002
  6
Continuous
 62
     2
100
AcDbLine
 10
-242.5686078739441
 20
6.784953095381535
 30
0.0
 11
-242.5686078739441
 21
4.107643105452336
 31
0.0
  0
LINE
  5
470
330
3FC
100
AcDbEntity
  8
LAYER002
  6
Continuous
 62
     2
100
AcDbLine
 10
-243.5294863656688
 20
6.374950405388565
 30
0.0
 11
-243.187736791038
 21
5.520576455099735
 31
0.0
  0
LINE
  5
471
330
3FC
100
AcDbEntity
  8
LAYER002
  6
Continuous
 62
     2
100
AcDbLine
 10
-243.3269391727722
 20
8.397644020979676
 30
0.0
 11
-242.585667200116
 21
8.397644020979676
 31
0.0
  0
LINE
  5
472
330
3FC
100
AcDbEntity
  8
LAYER002
  6
Continuous
 62
     2
100
AcDbLine
 10
-236.8052716923035
 20
9.324310280745304
 30
0.0
 11
-236.8052716923035
 21
8.614301659529484
 31
0.0
  0
LINE
  5
473
330
3FC
100
AcDbEntity
  8
LAYER002
  6
Continuous
 62
     2
100
AcDbLine
 10
-236.8052716923035
 20
9.324310280745304
 30
0.0
 11
-233.2952771854675
 21
9.324310280745304
 31
0.0
  0
LINE
  5
474
330
3FC
100
AcDbEntity
  8
LAYER002
  6
Continuous
 62
     2
100
AcDbLine
 10
-233.2952771854675
 20
10.40764234251287
 30
0.0
 11
-233.2952771854675
 21
9.324310280745304
 31
0.0
  0
LINE
  5
475
330
3FC
100
AcDbEntity
  8
LAYER002
  6
Continuous
 62
     2
100
AcDbLine
 10
-233.2952771854675
 20
10.40764234251287
 30
0.0
 11
-232.5852857303894
 21
10.40764234251287
 31
0.0
  0
LINE
  5
476
330
3FC
100
AcDbEntity
  8
LAYER002
  6
Continuous
 62
     2
100
AcDbLine
 10
-232.5852857303894
 20
10.40764234251287
 30
0.0
 11
-232.5852857303894
 21
9.324310280745304
 31
0.0
  0
LINE
  5
477
330
3FC
100
AcDbEntity
  8
LAYER002
  6
Continuous
 62
     2
100
AcDbLine
 10
-232.5852857303894
 20
9.324310280745304
 30
0.0
 11
-231.4575696659363
 21
9.324310280745304
 31
0.0
  0
LINE
  5
478
330
3FC
100
AcDbEntity
  8
LAYER002
  6
Continuous
 62
     2
100
AcDbLine
 10
-231.8126815742822
 20
9.858062644285347
 30
0.0
 11
-231.1660765004326
 21
10.10077881158568
 31
0.0
  0
LINE
  5
479
330
3FC
100
AcDbEntity
  8
LAYER002
  6
Continuous
 62
     2
100
AcDbLine
 10
-230.8952769000507
 20
9.049326825195457
 30
0.0
 11
-230.6605945291693
 21
9.137419554276824
 31
0.0
  0
LINE
  5
47A
330
3FC
100
AcDbEntity
  8
LAYER002
  6
Continuous
 62
     2
100
AcDbLine
 10
-230.8952832889832
 20
9.049327828352726
 30
0.0
 11
-230.8952832889832
 21
8.614309288924015
 31
0.0
  0
LINE
  5
47B
330
3FC
100
AcDbEntity
  8
LAYER002
  6
Continuous
 62
     2
100
AcDbLine
 10
-232.5703778934754
 20
8.614309288924015
 30
0.0
 11
-230.8952832889832
 21
8.614309288924015
 31
0.0
  0
LINE
  5
47C
330
3FC
100
AcDbEntity
  8
LAYER002
  6
Continuous
 62
     2
100
AcDbLine
 10
-231.2478464643972
 20
6.060950457631465
 30
0.0
 11
-231.4376605958547
 21
5.329438687941216
 31
0.0
  0
LINE
  5
47D
330
3FC
100
AcDbEntity
  8
LAYER002
  6
Continuous
 62
     2
100
AcDbLine
 10
-231.2478384819541
 20
6.060955404559525
 30
0.0
 11
-230.6499452559479
 21
5.292235501089646
 31
0.0
  0
LINE
  5
47E
330
3FC
100
AcDbEntity
  8
LAYER002
  6
Continuous
 62
     2
100
AcDbLine
 10
-230.6499447179693
 20
5.292228502070425
 30
0.0
 11
-230.9387676127164
 21
4.596542814700205
 31
0.0
  0
LINE
  5
47F
330
3FC
100
AcDbEntity
  8
LAYER002
  6
Continuous
 62
     2
100
AcDbLine
 10
-236.8052716923035
 20
8.614301659529484
 30
0.0
 11
-233.2682080936707
 21
8.614301659529484
 31
0.0
  0
LINE
  5
480
330
3FC
100
AcDbEntity
  8
LAYER002
  6
Continuous
 62
     2
100
AcDbLine
 10
-233.6686139774597
 20
7.699316002791196
 30
0.0
 11
-233.6686139774597
 21
6.989301659529486
 31
0.0
  0
LINE
  5
481
330
3FC
100
AcDbEntity
  8
LAYER002
  6
Continuous
 62
     2
100
AcDbLine
 10
-236.5669599247254
 20
7.699316002791196
 30
0.0
 11
-233.6686139774597
 21
7.699316002791196
 31
0.0
  0
LINE
  5
482
330
3FC
100
AcDbEntity
  8
LAYER002
  6
Continuous
 62
     2
100
AcDbLine
 10
-236.5669599247254
 20
7.699316002791196
 30
0.0
 11
-236.5669599247254
 21
6.989301659529486
 31
0.0
  0
LINE
  5
483
330
3FC
100
AcDbEntity
  8
LAYER002
  6
Continuous
 62
     2
100
AcDbLine
 10
-236.5669599247254
 20
6.989301659529486
 30
0.0
 11
-235.4186292362488
 21
6.989301659529486
 31
0.0
  0
LINE
  5
484
330
3FC
100
AcDbEntity
  8
LAYER002
  6
Continuous
 62
     2
100
AcDbLine
 10
-235.4186292362488
 20
6.989301659529486
 30
0.0
 11
-235.4186292362488
 21
5.289714791243346
 31
0.0
  0
LINE
  5
485
330
3FC
100
AcDbEntity
  8
LAYER002
  6
Continuous
 62
     2
100
AcDbLine
 10
-236.7808928105463
 20
5.219804396381235
 30
0.0
 11
-236.6981773953339
 21
4.527062799825065
 31
0.0
  0
LINE
  5
486
330
3FC
100
AcDbEntity
  8
LAYER002
  6
Continuous
 62
     2
100
AcDbLine
 10
-236.6981773953339
 20
4.527062799825065
 30
0.0
 11
-233.409965364456
 21
4.919685135184476
 31
0.0
  0
LINE
  5
487
330
3FC
100
AcDbEntity
  8
LAYER002
  6
Continuous
 62
     2
100
AcDbLine
 10
-233.4099622440612
 20
5.620681740706235
 30
0.0
 11
-233.4099622440612
 21
4.919683434431826
 31
0.0
  0
LINE
  5
488
330
3FC
100
AcDbEntity
  8
LAYER002
  6
Continuous
 62
     2
100
AcDbLine
 10
-234.7086072635925
 20
6.989301659529486
 30
0.0
 11
-234.7086072635925
 21
5.375158287947446
 31
0.0
  0
LINE
  5
489
330
3FC
100
AcDbEntity
  8
LAYER002
  6
Continuous
 62
     2
100
AcDbLine
 10
-234.7086072635925
 20
6.989301659529486
 30
0.0
 11
-233.6686139774597
 21
6.989301659529486
 31
0.0
  0
LINE
  5
48A
330
3FC
100
AcDbEntity
  8
LAYER002
  6
Continuous
 62
     2
100
AcDbLine
 10
-226.0296215093412
 20
6.341587484031666
 30
0.0
 11
-226.6094198728802
 21
5.910412868962175
 31
0.0
  0
LINE
  5
48B
330
3FC
100
AcDbEntity
  8
LAYER002
  6
Continuous
 62
     2
100
AcDbLine
 10
-224.9846783826679
 20
4.215389097046505
 30
0.0
 11
-224.4091252440715
 21
4.633973213268795
 31
0.0
  0
LINE
  5
48C
330
3FC
100
AcDbEntity
  8
LAYER002
  6
Continuous
 62
     2
100
AcDbLine
 10
-229.8638215024577
 20
4.441379718777625
 30
0.0
 11
-225.3538680557332
 21
4.641105850218746
 31
0.0
  0
LINE
  5
48D
330
3FC
100
AcDbEntity
  8
LAYER002
  6
Continuous
 62
     2
100
AcDbLine
 10
-229.9967305802891
 20
5.146858094025185
 30
0.0
 11
-229.8638148103025
 21
4.441382081627656
 31
0.0
  0
LINE
  5
48E
330
3FC
100
AcDbEntity
  8
LAYER002
  6
Continuous
 62
     2
100
AcDbLine
 10
-229.9967424299886
 20
5.146854859938006
 30
0.0
 11
-228.9674764152676
 21
5.165462694700625
 31
0.0
  0
LINE
  5
48F
330
3FC
100
AcDbEntity
  8
LAYER002
  6
Continuous
 62
     2
100
AcDbLine
 10
-228.2446650582419
 20
6.664305113279436
 30
0.0
 11
-228.9674691638569
 21
5.165461801797516
 31
0.0
  0
LINE
  5
490
330
3FC
100
AcDbEntity
  8
LAYER002
  6
Continuous
 62
     2
100
AcDbLine
 10
-230.1102796268738
 20
6.664310433333195
 30
0.0
 11
-228.2446637821472
 21
6.664310433333195
 31
0.0
  0
LINE
  5
491
330
3FC
100
AcDbEntity
  8
LAYER002
  6
Continuous
 62
     2
100
AcDbLine
 10
-230.1102796268738
 20
7.374309517805844
 30
0.0
 11
-230.1102796268738
 21
6.664310433333195
 31
0.0
  0
LINE
  5
492
330
3FC
100
AcDbEntity
  8
LAYER002
  6
Continuous
 62
     2
100
AcDbLine
 10
-230.1102796268738
 20
7.374309517805844
 30
0.0
 11
-224.4602857303894
 21
7.374309517805844
 31
0.0
  0
LINE
  5
493
330
3FC
100
AcDbEntity
  8
LAYER002
  6
Continuous
 62
     2
100
AcDbLine
 10
-224.4602857303894
 20
7.374309517805844
 30
0.0
 11
-224.4602857303894
 21
6.664310433333195
 31
0.0
  0
LINE
  5
494
330
3FC
100
AcDbEntity
  8
LAYER002
  6
Continuous
 62
     2
100
AcDbLine
 10
-227.4564252567566
 20
6.664310433333195
 30
0.0
 11
-224.4602857303894
 21
6.664310433333195
 31
0.0
  0
LINE
  5
495
330
3FC
100
AcDbEntity
  8
LAYER002
  6
Continuous
 62
     2
100
AcDbLine
 10
-227.4564264358303
 20
6.664309423384796
 30
0.0
 11
-228.1722976773514
 21
5.179842451074106
 31
0.0
  0
LINE
  5
496
330
3FC
100
AcDbEntity
  8
LAYER002
  6
Continuous
 62
     2
100
AcDbLine
 10
-228.1722877512301
 20
5.179838705424666
 30
0.0
 11
-225.8965518345639
 21
5.220981147995406
 31
0.0
  0
LINE
  5
497
330
3FC
100
AcDbEntity
  8
LAYER002
  6
Continuous
 62
     2
100
AcDbLine
 10
-229.1352735233582
 20
7.964309670393735
 30
0.0
 11
-225.435291833905
 21
7.964309670393735
 31
0.0
  0
LINE
  5
498
330
3FC
100
AcDbEntity
  8
LAYER002
  6
Continuous
 62
     2
100
AcDbLine
 10
-225.435291833905
 20
8.391046502058774
 30
0.0
 11
-225.435291833905
 21
7.964309670393735
 31
0.0
  0
LINE
  5
499
330
3FC
100
AcDbEntity
  8
LAYER002
  6
Continuous
 62
     2
100
AcDbLine
 10
-224.1894419996943
 20
8.707311534186864
 30
0.0
 11
-224.557411517587
 21
8.069969644999144
 31
0.0
  0
LINE
  5
49A
330
3FC
100
AcDbEntity
  8
LAYER002
  6
Continuous
 62
     2
100
AcDbLine
 10
-227.6740003299988
 20
10.32097623533514
 30
0.0
 11
-226.8965650272644
 21
10.32097623533514
 31
0.0
  0
LINE
  5
49B
330
3FC
100
AcDbEntity
  8
LAYER002
  6
Continuous
 62
     2
100
AcDbLine
 10
-230.3811144507037
 20
8.707313486239005
 30
0.0
 11
-230.013144932811
 21
8.069971597051296
 31
0.0
  0
LINE
  5
49C
330
3FC
100
AcDbEntity
  8
LAYER002
  6
Continuous
 62
     2
100
AcDbLine
 10
-229.1352735233582
 20
8.391046502058774
 30
0.0
 11
-229.1352735233582
 21
7.964309670393735
 31
0.0
  0
LINE
  5
49D
330
3FC
100
AcDbEntity
  8
LAYER002
  6
Continuous
 62
     2
100
AcDbLine
 10
-228.5887494755066
 20
8.674308754866395
 30
0.0
 11
-225.9818158817566
 21
8.674308754866395
 31
0.0
  0
LINE
  5
49E
330
3FC
100
AcDbEntity
  8
LAYER002
  6
Continuous
 62
     2
100
AcDbLine
 10
-222.7869458866394
 20
10.40764234251287
 30
0.0
 11
-222.7869458866394
 21
9.280984856550965
 31
0.0
  0
LINE
  5
49F
330
3FC
100
AcDbEntity
  8
LAYER002
  6
Continuous
 62
     2
100
AcDbLine
 10
-222.7869458866394
 20
10.40764234251287
 30
0.0
 11
-222.0769544315613
 21
10.40764234251287
 31
0.0
  0
LINE
  5
4A0
330
3FC
100
AcDbEntity
  8
LAYER002
  6
Continuous
 62
     2
100
AcDbLine
 10
-222.0769544315613
 20
10.40764234251287
 30
0.0
 11
-222.0769544315613
 21
9.280975319807804
 31
0.0
  0
LINE
  5
4A1
330
3FC
100
AcDbEntity
  8
LAYER002
  6
Continuous
 62
     2
100
AcDbLine
 10
-222.0769544315613
 20
9.280975319807804
 30
0.0
 11
-221.2752881717957
 21
9.280975319807804
 31
0.0
  0
LINE
  5
4A2
330
3FC
100
AcDbEntity
  8
LAYER002
  6
Continuous
 62
     2
100
AcDbLine
 10
-221.2752881717957
 20
9.280975319807804
 30
0.0
 11
-221.2752881717957
 21
8.496406533186707
 31
0.0
  0
LINE
  5
4A3
330
3FC
100
AcDbEntity
  8
LAYER002
  6
Continuous
 62
     2
100
AcDbLine
 10
-221.3272762831614
 20
6.052573548175626
 30
0.0
 11
-220.9029475082861
 21
6.625101586347536
 31
0.0
  0
LINE
  5
4A4
330
3FC
100
AcDbEntity
  8
LAYER002
  6
Continuous
 62
     2
100
AcDbLine
 10
-222.0769544315613
 20
6.797346093123236
 30
0.0
 11
-222.0769544315613
 21
4.107643105452336
 31
0.0
  0
LINE
  5
4A5
330
3FC
100
AcDbEntity
  8
LAYER002
  6
Continuous
 62
     2
100
AcDbLine
 10
-222.7869458866394
 20
4.107643105452336
 30
0.0
 11
-222.0769544315613
 21
4.107643105452336
 31
0.0
  0
LINE
  5
4A6
330
3FC
100
AcDbEntity
  8
LAYER002
  6
Continuous
 62
     2
100
AcDbLine
 10
-222.7869458866394
 20
6.375231720869816
 30
0.0
 11
-222.7869458866394
 21
4.107643105452336
 31
0.0
  0
LINE
  5
4A7
330
3FC
100
AcDbEntity
  8
LAYER002
  6
Continuous
 62
     2
100
AcDbLine
 10
-223.9088641654588
 20
6.354550981469765
 30
0.0
 11
-223.5668749940788
 21
5.602174819211935
 31
0.0
  0
LINE
  5
4A8
330
3FC
100
AcDbEntity
  8
LAYER002
  6
Continuous
 62
     2
100
AcDbLine
 10
-222.0769462655109
 20
6.797344018448296
 30
0.0
 11
-221.5461308820483
 21
6.246112630629216
 31
0.0
  0
LINE
  5
4A9
330
3FC
100
AcDbEntity
  8
LAYER002
  6
Continuous
 62
     2
100
AcDbLine
 10
-223.761951990155
 20
8.570966698591984
 30
0.0
 11
-221.9172864628113
 21
8.570966698591984
 31
0.0
  0
LINE
  5
4AA
330
3FC
100
AcDbEntity
  8
LAYER002
  6
Continuous
 62
     2
100
AcDbLine
 10
-223.761951990155
 20
9.280984856550965
 30
0.0
 11
-223.761951990155
 21
8.570966698591984
 31
0.0
  0
LINE
  5
4AB
330
3FC
100
AcDbEntity
  8
LAYER002
  6
Continuous
 62
     2
100
AcDbLine
 10
-223.761951990155
 20
9.280984856550965
 30
0.0
 11
-222.7869458866394
 21
9.280984856550965
 31
0.0
  0
LINE
  5
4AC
330
3FC
100
AcDbEntity
  8
LAYER002
  6
Continuous
 62
     2
100
AcDbLine
 10
-220.858631677655
 20
8.782651879256047
 30
0.0
 11
-220.858631677655
 21
8.072633721297055
 31
0.0
  0
LINE
  5
4AD
330
3FC
100
AcDbEntity
  8
LAYER002
  6
Continuous
 62
     2
100
AcDbLine
 10
-220.858631677655
 20
8.782651879256047
 30
0.0
 11
-219.7536206913269
 21
8.782651879256047
 31
0.0
  0
LINE
  5
4AE
330
3FC
100
AcDbEntity
  8
LAYER002
  6
Continuous
 62
     2
100
AcDbLine
 10
-219.7536206913269
 20
10.29931829160955
 30
0.0
 11
-219.7536206913269
 21
8.782651879256047
 31
0.0
  0
LINE
  5
4AF
330
3FC
100
AcDbEntity
  8
LAYER002
  6
Continuous
 62
     2
100
AcDbLine
 10
-219.7536206913269
 20
10.29931829160955
 30
0.0
 11
-219.0436139774597
 21
10.29931829160955
 31
0.0
  0
LINE
  5
4B0
330
3FC
100
AcDbEntity
  8
LAYER002
  6
Continuous
 62
     2
100
AcDbLine
 10
-219.0436139774597
 20
10.29931829160955
 30
0.0
 11
-219.0436139774597
 21
8.782651879256047
 31
0.0
  0
LINE
  5
4B1
330
3FC
100
AcDbEntity
  8
LAYER002
  6
Continuous
 62
     2
100
AcDbLine
 10
-219.0436139774597
 20
8.782651879256047
 30
0.0
 11
-217.8086133671082
 21
8.782651879256047
 31
0.0
  0
LINE
  5
4B2
330
3FC
100
AcDbEntity
  8
LAYER002
  6
Continuous
 62
     2
100
AcDbLine
 10
-217.8086133671082
 20
8.782651879256047
 30
0.0
 11
-217.8086133671082
 21
8.072633721297055
 31
0.0
  0
LINE
  5
4B3
330
3FC
100
AcDbEntity
  8
LAYER002
  6
Continuous
 62
     2
100
AcDbLine
 10
-219.0436139774597
 20
8.072633721297055
 30
0.0
 11
-217.8086133671082
 21
8.072633721297055
 31
0.0
  0
LINE
  5
4B4
330
3FC
100
AcDbEntity
  8
LAYER002
  6
Continuous
 62
     2
100
AcDbLine
 10
-219.0436139774597
 20
8.072633721297055
 30
0.0
 11
-219.0436139774597
 21
5.120985009138856
 31
0.0
  0
LINE
  5
4B5
330
3FC
100
AcDbEntity
  8
LAYER002
  6
Continuous
 62
     2
100
AcDbLine
 10
-219.0436139774597
 20
5.120985009138856
 30
0.0
 11
-217.6786084842956
 21
5.120985009138856
 31
0.0
  0
LINE
  5
4B6
330
3FC
100
AcDbEntity
  8
LAYER002
  6
Continuous
 62
     2
100
AcDbLine
 10
-217.6786084842956
 20
5.120985009138856
 30
0.0
 11
-217.6786084842956
 21
4.410966851179875
 31
0.0
  0
LINE
  5
4B7
330
3FC
100
AcDbEntity
  8
LAYER002
  6
Continuous
 62
     2
100
AcDbLine
 10
-221.291966028241
 20
4.410966851179875
 30
0.0
 11
-217.6786084842956
 21
4.410966851179875
 31
0.0
  0
LINE
  5
4B8
330
3FC
100
AcDbEntity
  8
LAYER002
  6
Continuous
 62
     2
100
AcDbLine
 10
-221.291966028241
 20
5.120985009138856
 30
0.0
 11
-221.291966028241
 21
4.410966851179875
 31
0.0
  0
LINE
  5
4B9
330
3FC
100
AcDbEntity
  8
LAYER002
  6
Continuous
 62
     2
100
AcDbLine
 10
-221.291966028241
 20
5.120985009138856
 30
0.0
 11
-219.7536206913269
 21
5.120985009138856
 31
0.0
  0
LINE
  5
4BA
330
3FC
100
AcDbEntity
  8
LAYER002
  6
Continuous
 62
     2
100
AcDbLine
 10
-219.7536206913269
 20
8.072633721297055
 30
0.0
 11
-219.7536206913269
 21
5.120985009138856
 31
0.0
  0
LINE
  5
4BB
330
3FC
100
AcDbEntity
  8
LAYER002
  6
Continuous
 62
     2
100
AcDbLine
 10
-220.858631677655
 20
8.072633721297055
 30
0.0
 11
-219.7536206913269
 21
8.072633721297055
 31
0.0
  0
ARC
  5
4BC
330
3FC
100
AcDbEntity
  8
LAYER002
  6
Continuous
 62
     2
100
AcDbCircle
 10
-251.4327893924988
 20
5.090976693098815
 30
0.0
 40
0.5499999523162842
100
AcDbArc
 50
269.9999974955215
 51
0.0
  0
ARC
  5
4BD
330
3FC
100
AcDbEntity
  8
LAYER002
  6
Continuous
 62
     2
100
AcDbCircle
 10
-251.8011213016785
 20
5.459309555952826
 30
0.0
 40
0.2083333283662796
100
AcDbArc
 50
269.9999974955215
 51
0.0
  0
ARC
  5
4BE
330
3FC
100
AcDbEntity
  8
LAYER002
  6
Continuous
 62
     2
100
AcDbCircle
 10
-242.4133649540222
 20
13.92569158262519
 30
0.0
 40
5.372136116027832
100
AcDbArc
 50
222.144461490936
 51
256.2588863195073
  0
ARC
  5
4BF
330
3FC
100
AcDbEntity
  8
LAYER002
  6
Continuous
 62
     2
100
AcDbCircle
 10
-242.4133649540222
 20
13.92569158262519
 30
0.0
 40
6.082136154174804
100
AcDbArc
 50
245.5031073957324
 51
254.3174801800118
  0
ARC
  5
4C0
330
3FC
100
AcDbEntity
  8
LAYER002
  6
Continuous
 62
     2
100
AcDbCircle
 10
-250.6562085819519
 20
7.434785820906437
 30
0.0
 40
5.320183277130126
100
AcDbArc
 50
334.4791825813552
 51
347.9156954949181
  0
ARC
  5
4C1
330
3FC
100
AcDbEntity
  8
LAYER002
  6
Continuous
 62
     2
100
AcDbCircle
 10
-250.6562085819519
 20
7.434785820906437
 30
0.0
 40
6.030182838439941
100
AcDbArc
 50
337.6594040362788
 51
346.9029807853597
  0
ARC
  5
4C2
330
3FC
100
AcDbEntity
  8
LAYER002
  6
Continuous
 62
     2
100
AcDbCircle
 10
-252.1261182499206
 20
4.473863579695496
 30
0.0
 40
3.729733943939208
100
AcDbArc
 50
10.32958963371853
 51
25.49006619945449
  0
ARC
  5
4C3
330
3FC
100
AcDbEntity
  8
LAYER002
  6
Continuous
 62
     2
100
AcDbCircle
 10
-252.1261182499206
 20
4.473863579695496
 30
0.0
 40
4.439733982086181
100
AcDbArc
 50
8.663732962135238
 51
24.71180541711893
  0
ARC
  5
4C4
330
3FC
100
AcDbEntity
  8
LAYER002
  6
Continuous
 62
     2
100
AcDbCircle
 10
-251.157200403241
 20
13.92569158262519
 30
0.0
 40
6.082136154174804
100
AcDbArc
 50
285.6825762827356
 51
294.4968944255018
  0
ARC
  5
4C5
330
3FC
100
AcDbEntity
  8
LAYER002
  6
Continuous
 62
     2
100
AcDbCircle
 10
-251.157200403241
 20
13.92569158262519
 30
0.0
 40
5.372136116027832
100
AcDbArc
 50
283.7411769734292
 51
317.8555403302989
  0
ARC
  5
4C6
330
3FC
100
AcDbEntity
  8
LAYER002
  6
Continuous
 62
     2
100
AcDbCircle
 10
-242.4133649540222
 20
13.92569158262519
 30
0.0
 40
6.082136154174804
100
AcDbArc
 50
224.0434453254954
 51
239.7017359600209
  0
ARC
  5
4C7
330
3FC
100
AcDbEntity
  8
LAYER002
  6
Continuous
 62
     2
100
AcDbCircle
 10
-251.157200403241
 20
13.92569158262519
 30
0.0
 40
6.082136154174804
100
AcDbArc
 50
300.2982590310245
 51
315.9565564957385
  0
ARC
  5
4C8
330
3FC
100
AcDbEntity
  8
LAYER002
  6
Continuous
 62
     2
100
AcDbCircle
 10
-243.7769666385925
 20
10.6023692864826
 30
0.0
 40
3.217607975006103
100
AcDbArc
 50
322.0663758592739
 51
352.625044333298
  0
ARC
  5
4C9
330
3FC
100
AcDbEntity
  8
LAYER002
  6
Continuous
 62
     2
100
AcDbCircle
 10
-243.9403424930847
 20
10.38493154234198
 30
0.0
 40
3.927608013153076
100
AcDbArc
 50
345.9682019493257
 51
354.326552884801
  0
ARC
  5
4CA
330
3FC
100
AcDbEntity
  8
LAYER002
  6
Continuous
 62
     2
100
AcDbCircle
 10
-234.6475721073425
 20
8.603809334700375
 30
0.0
 40
4.233608722686767
100
AcDbArc
 50
198.9690832219488
 51
234.084465443196
  0
ARC
  5
4CB
330
3FC
100
AcDbEntity
  8
LAYER002
  6
Continuous
 62
     2
100
AcDbCircle
 10
-234.0157514286316
 20
8.089578606550965
 30
0.0
 40
5.091485500335693
100
AcDbArc
 50
197.6107088601952
 51
225.0467318126795
  0
ARC
  5
4CC
330
3FC
100
AcDbEntity
  8
LAYER002
  6
Continuous
 62
     2
100
AcDbCircle
 10
-245.3316388798035
 20
8.886196114485535
 30
0.0
 40
6.229516983032226
100
AcDbArc
 50
315.0119652391877
 51
337.4449600020025
  0
ARC
  5
4CD
330
3FC
100
AcDbEntity
  8
LAYER002
  6
Continuous
 62
     2
100
AcDbCircle
 10
-244.9608197880066
 20
9.217092492049015
 30
0.0
 40
5.519516944885253
100
AcDbArc
 50
310.7174394023131
 51
338.8728230008243
  0
ARC
  5
4CE
330
3FC
100
AcDbEntity
  8
LAYER002
  6
Continuous
 62
     2
100
AcDbCircle
 10
-243.9403424930847
 20
10.38493154234198
 30
0.0
 40
3.927608013153076
100
AcDbArc
 50
323.8455240248455
 51
334.9611992763675
  0
ARC
  5
4CF
330
3FC
100
AcDbEntity
  8
LAYER002
  6
Continuous
 62
     2
100
AcDbCircle
 10
-238.6866498661316
 20
9.722780205672055
 30
0.0
 40
3.447182178497314
100
AcDbArc
 50
202.6072108041132
 51
228.6792723001024
  0
ARC
  5
4D0
330
3FC
100
AcDbEntity
  8
LAYER002
  6
Continuous
 62
     2
100
AcDbCircle
 10
-238.6866498661316
 20
9.722780205672055
 30
0.0
 40
4.157182216644287
100
AcDbArc
 50
220.2699570543616
 51
229.5083479823144
  0
ARC
  5
4D1
330
3FC
100
AcDbEntity
  8
LAYER002
  6
Continuous
 62
     2
100
AcDbCircle
 10
-248.12059456828
 20
8.719820000593937
 30
0.0
 40
5.879472732543945
100
AcDbArc
 50
327.0342114992451
 51
340.7865378458766
  0
ARC
  5
4D2
330
3FC
100
AcDbEntity
  8
LAYER002
  6
Continuous
 62
     2
100
AcDbCircle
 10
-247.6316877079284
 20
9.520648934309754
 30
0.0
 40
5.169472694396972
100
AcDbArc
 50
322.5178001369924
 51
347.4531482541357
  0
ARC
  5
4D3
330
3FC
100
AcDbEntity
  8
LAYER002
  6
Continuous
 62
     2
100
AcDbCircle
 10
-234.1305738163269
 20
7.930978753035336
 30
0.0
 40
3.014348506927489
100
AcDbArc
 50
27.53130409140639
 51
39.73991206296718
  0
ARC
  5
4D4
330
3FC
100
AcDbEntity
  8
LAYER002
  6
Continuous
 62
     2
100
AcDbCircle
 10
-234.1305738163269
 20
7.930978753035336
 30
0.0
 40
3.67372441291809
100
AcDbArc
 50
19.17154016054552
 51
36.2014506011714
  0
ARC
  5
4D5
330
3FC
100
AcDbEntity
  8
LAYER002
  6
Continuous
 62
     2
100
AcDbCircle
 10
-219.4775434208191
 20
9.479028679793156
 30
0.0
 40
13.12135219573975
100
AcDbArc
 50
183.7786332248139
 51
198.5130041703101
  0
ARC
  5
4D6
330
3FC
100
AcDbEntity
  8
LAYER002
  6
Continuous
 62
     2
100
AcDbCircle
 10
-231.6812482548035
 20
5.392644860213076
 30
0.0
 40
0.2516608834266663
100
AcDbArc
 50
198.5130041703098
 51
345.4535873227271
  0
ARC
  5
4D7
330
3FC
100
AcDbEntity
  8
LAYER002
  6
Continuous
 62
     2
100
AcDbCircle
 10
-231.671116418866
 20
4.900584198897156
 30
0.0
 40
0.7929474711418152
100
AcDbArc
 50
200.5801609226153
 51
337.4535882384713
  0
ARC
  5
4D8
330
3FC
100
AcDbEntity
  8
LAYER002
  6
Continuous
 62
     2
100
AcDbCircle
 10
-219.4775434208191
 20
9.479028679793156
 30
0.0
 40
13.81774616241455
100
AcDbArc
 50
183.5879616639438
 51
200.5801609226152
  0
ARC
  5
4D9
330
3FC
100
AcDbEntity
  8
LAYER002
  6
Continuous
 62
     2
100
AcDbCircle
 10
-236.8771100712097
 20
20.40220258421209
 30
0.0
 40
15.18270206451416
100
AcDbArc
 50
270.3631108423682
 51
275.512458759533
  0
ARC
  5
4DA
330
3FC
100
AcDbEntity
  8
LAYER002
  6
Continuous
 62
     2
100
AcDbCircle
 10
-236.8771100712097
 20
20.40220258421209
 30
0.0
 40
15.18270206451416
100
AcDbArc
 50
278.2114694817656
 51
283.2006289723249
  0
ARC
  5
4DB
330
3FC
100
AcDbEntity
  8
LAYER002
  6
Continuous
 62
     2
100
AcDbCircle
 10
-238.7067151737487
 20
-7.311435244614806
 30
0.0
 40
18.63099098205566
100
AcDbArc
 50
39.87824388422753
 51
47.12272159344206
  0
ARC
  5
4DC
330
3FC
100
AcDbEntity
  8
LAYER002
  6
Continuous
 62
     2
100
AcDbCircle
 10
-238.7067151737487
 20
-7.311435244614806
 30
0.0
 40
17.92099189758301
100
AcDbArc
 50
44.3720678108932
 51
47.54314705761209
  0
ARC
  5
4DD
330
3FC
100
AcDbEntity
  8
LAYER002
  6
Continuous
 62
     2
100
AcDbCircle
 10
-238.7067151737487
 20
-7.311435244614806
 30
0.0
 40
17.92099189758301
100
AcDbArc
 50
40.03105229143286
 51
41.83268202465791
  0
ARC
  5
4DE
330
3FC
100
AcDbEntity
  8
LAYER002
  6
Continuous
 62
     2
100
AcDbCircle
 10
-222.9133649540222
 20
13.92569158262519
 30
0.0
 40
6.082136154174804
100
AcDbArc
 50
245.5031073957324
 51
254.31749384039
  0
ARC
  5
4DF
330
3FC
100
AcDbEntity
  8
LAYER002
  6
Continuous
 62
     2
100
AcDbCircle
 10
-222.9133649540222
 20
13.92569158262519
 30
0.0
 40
5.372136116027832
100
AcDbArc
 50
222.144461490936
 51
256.2588999798852
  0
ARC
  5
4E0
330
3FC
100
AcDbEntity
  8
LAYER002
  6
Continuous
 62
     2
100
AcDbCircle
 10
-231.657200403241
 20
13.92569158262519
 30
0.0
 40
5.372136116027832
100
AcDbArc
 50
283.7411906338084
 51
317.8555403302989
  0
ARC
  5
4E1
330
3FC
100
AcDbEntity
  8
LAYER002
  6
Continuous
 62
     2
100
AcDbCircle
 10
-231.657200403241
 20
13.92569158262519
 30
0.0
 40
6.082136154174804
100
AcDbArc
 50
285.6825899431134
 51
294.4968944255018
  0
ARC
  5
4E2
330
3FC
100
AcDbEntity
  8
LAYER002
  6
Continuous
 62
     2
100
AcDbCircle
 10
-222.9133649540222
 20
13.92569158262519
 30
0.0
 40
6.082136154174804
100
AcDbArc
 50
224.0434453254954
 51
239.7017359600209
  0
ARC
  5
4E3
330
3FC
100
AcDbEntity
  8
LAYER002
  6
Continuous
 62
     2
100
AcDbCircle
 10
-231.657200403241
 20
13.92569158262519
 30
0.0
 40
6.082136154174804
100
AcDbArc
 50
300.2982590310245
 51
315.9565564957385
  0
ARC
  5
4E4
330
3FC
100
AcDbEntity
  8
LAYER002
  6
Continuous
 62
     2
100
AcDbCircle
 10
-230.8184247684754
 20
13.69815252012519
 30
0.0
 40
10.86874961853027
100
AcDbArc
 50
325.4612838201876
 51
331.406225832254
  0
ARC
  5
4E5
330
3FC
100
AcDbEntity
  8
LAYER002
  6
Continuous
 62
     2
100
AcDbCircle
 10
-219.2372327518738
 20
9.348941780989445
 30
0.0
 40
3.192793846130371
100
AcDbArc
 50
214.5991241940667
 51
238.5529937642722
  0
ARC
  5
4E6
330
3FC
100
AcDbEntity
  8
LAYER002
  6
Continuous
 62
     2
100
AcDbCircle
 10
-220.2320752811707
 20
7.511507012312687
 30
0.0
 40
1.824270844459533
100
AcDbArc
 50
223.919067580711
 51
233.1051392596222
  0
ARC
  5
4E7
330
3FC
100
AcDbEntity
  8
LAYER002
  6
Continuous
 62
     2
100
AcDbCircle
 10
-230.8184247684754
 20
13.69815252012519
 30
0.0
 40
10.86874961853027
100
AcDbArc
 50
311.8507112195894
 51
317.6421276545864
  0
ARC
  5
4E8
330
3FC
100
AcDbEntity
  8
LAYER002
  6
Continuous
 62
     2
100
AcDbCircle
 10
-227.2737470341004
 20
11.38109395689276
 30
0.0
 40
6.048844814300537
100
AcDbArc
 50
303.7992056788037
 51
332.3174413694255
  0
MTEXT
  5
4E9
330
3FC
100
AcDbEntity
  8
LAYER010
  6
Continuous
 62
    10
100
AcDbMText
 10
-260.3462339210338
 20
11.28985021299627
 30
0.0
 40
2.5
 41
85.83431254504825
 71
     7
 72
     5
  1
\W1.11767;やさしさと安全をキーワードに
 73
     1
 44
1.0
1001
ACAD
1000
MTEXTBEGIN
1070
    73
1070
     1
1070
    44
1040
1.0
1070
    74
1070
     0
1000
MTEXTEND
  0
MTEXT
  5
4EA
330
3FC
100
AcDbEntity
  8
LAYER010
  6
Continuous
 62
    10
100
AcDbMText
 10
-237.0352826786316
 20
2.587731339400086
 30
0.0
 40
1.799999952316284
 41
266.3999929428101
 71
     5
 72
     5
  3
{\W0.706799;\U+ff2f\U+ff33\U+ff21\U+ff2b\U+ff21\U+ff08\U+ff10\U+ff16\U+ff09\U+ff16\U+ff12\U+ff15\U+ff12\U+ff0d\U+ff13\U+ff16\U+ff19\U+ff11\U+3000\U+ff34\U+ff2f\U+ff2b\U+ff39\U+ff2f\U+ff08\U+ff10\U+ff13\U+ff09\U+ff13\U+ff14\U+ff13\U+ff17\U+ff0d\U+ff10
  1
\U+ff13\U+ff10\U+ff16}
 73
     1
 44
1.0
1001
ACAD
1000
MTEXTBEGIN
1070
    73
1070
     1
1070
    44
1040
1.0
1070
    74
1070
     0
1000
MTEXTEND
  0
LINE
  5
4EB
330
3FC
100
AcDbEntity
  8
LAYER002
  6
Continuous
 62
     2
100
AcDbLine
 10
-254.9777875614441
 20
6.230976082747256
 30
0.0
 11
-253.6402784061707
 21
6.230976082747258
 31
0.0
  0
LINE
  5
4EC
330
3FC
100
AcDbEntity
  8
LAYER002
  6
Continuous
 62
     2
100
AcDbLine
 10
-252.9302869510925
 20
6.230976082747256
 30
0.0
 11
-251.5927777958191
 21
6.230976082747256
 31
0.0
  0
ENDBLK
  5
4F0
330
3FC
100
AcDbEntity
  8
0
100
AcDbBlockEnd
  0
BLOCK
  5
709
330
708
100
AcDbEntity
  8
0
100
AcDbBlockBegin
  2
_OPEN
 70
     0
 10
0.0
 20
0.0
 30
0.0
  3
_OPEN
  1

  0
LINE
  5
70A
330
708
100
AcDbEntity
  8
0
  6
ByBlock
 62
     0
100
AcDbLine
 10
-1.0
 20
0.166667
 30
0.0
 11
0.0
 21
0.0
 31
0.0
  0
LINE
  5
70B
330
708
100
AcDbEntity
  8
0
  6
ByBlock
 62
     0
100
AcDbLine
 10
0.0
 20
0.0
 30
0.0
 11
-1.0
 21
-0.166667
 31
0.0
  0
LINE
  5
70C
330
708
100
AcDbEntity
  8
0
  6
ByBlock
 62
     0
100
AcDbLine
 10
0.0
 20
0.0
 30
0.0
 11
-1.0
 21
0.0
 31
0.0
  0
ENDBLK
  5
70D
330
708
100
AcDbEntity
  8
0
100
AcDbBlockEnd
  0
BLOCK
  5
8C4
330
8BA
100
AcDbEntity
  8
0
100
AcDbBlockBegin
  2
*D8
 70
     1
 10
0.0
 20
0.0
 30
0.0
  3
*D8
  1

  0
LINE
  5
8C8
330
8BA
100
AcDbEntity
  8
AM_5
100
AcDbLine
 10
97.98796279539828
 20
216.0679633888212
 30
0.0
 11
97.98796279539828
 21
235.2599657315947
 31
0.0
  0
LINE
  5
8C9
330
8BA
100
AcDbEntity
  8
AM_5
100
AcDbLine
 10
132.9879780541873
 20
216.0679633888212
 30
0.0
 11
132.9879780541873
 21
235.2599657315947
 31
0.0
  0
LINE
  5
8CA
330
8BA
100
AcDbEntity
  8
AM_5
100
AcDbLine
 10
100.4879627953983
 20
234.2599657315947
 30
0.0
 11
130.4879780541873
 21
234.2599657315947
 31
0.0
  0
SOLID
  5
8CB
330
8BA
100
AcDbEntity
  8
AM_5
100
AcDbTrace
 10
100.4879627953983
 20
234.6766323982613
 30
0.0
 11
100.4879627953983
 21
233.843299064928
 31
0.0
 12
97.98796279539828
 22
234.2599657315947
 32
0.0
 13
97.98796279539828
 23
234.2599657315947
 33
0.0
  0
SOLID
  5
8CC
330
8BA
100
AcDbEntity
  8
AM_5
100
AcDbTrace
 10
130.4879780541873
 20
234.6766323982613
 30
0.0
 11
130.4879780541873
 21
233.843299064928
 31
0.0
 12
132.9879780541873
 22
234.2599657315947
 32
0.0
 13
132.9879780541873
 23
234.2599657315947
 33
0.0
  0
MTEXT
  5
8CD
330
8BA
100
AcDbEntity
  8
AM_5
 62
     2
100
AcDbMText
 10
115.4879704247928
 20
237.5099657315947
 30
0.0
 40
3.5
 41
0.0
 71
     5
 72
     1
  1
35
 73
     1
 44
1.0
1001
ACAD
1000
MTEXTBEGIN
1070
    73
1070
     1
1070
    44
1040
1.0
1070
    74
1070
     0
1000
MTEXTEND
  0
POINT
  5
8CE
330
8BA
100
AcDbEntity
  8
Defpoints
 62
     0
100
AcDbPoint
 10
97.98796279539828
 20
215.0679633888212
 30
0.0
  0
POINT
  5
8CF
330
8BA
100
AcDbEntity
  8
Defpoints
 62
     0
100
AcDbPoint
 10
132.9879780541873
 20
215.0679633888212
 30
0.0
  0
POINT
  5
8D0
330
8BA
100
AcDbEntity
  8
Defpoints
 62
     0
100
AcDbPoint
 10
132.9879780541873
 20
234.2599657315947
 30
0.0
  0
ENDBLK
  5
8C5
330
8BA
100
AcDbEntity
  8
0
100
AcDbBlockEnd
  0
BLOCK
  5
950
330
946
100
AcDbEntity
  8
0
100
AcDbBlockBegin
  2
*D9
 70
     1
 10
0.0
 20
0.0
 30
0.0
  3
*D9
  1

  0
LINE
  5
95E
330
946
100
AcDbEntity
  8
AM_5
100
AcDbLine
 10
133.7846713293086
 20
149.1742104098307
 30
0.0
 11
145.7846713293086
 21
149.1742104098307
 31
0.0
  0
LINE
  5
95F
330
946
100
AcDbEntity
  8
AM_5
100
AcDbLine
 10
133.7846699487186
 20
161.6742103370634
 30
0.0
 11
145.7846713293086
 21
161.6742103370634
 31
0.0
  0
LINE
  5
960
330
946
100
AcDbEntity
  8
AM_5
100
AcDbLine
 10
144.7846713293086
 20
151.6742104098307
 30
0.0
 11
144.7846713293086
 21
159.1742103370634
 31
0.0
  0
SOLID
  5
961
330
946
100
AcDbEntity
  8
AM_5
100
AcDbTrace
 10
144.3680046626419
 20
151.6742104098307
 30
0.0
 11
145.2013379959752
 21
151.6742104098307
 31
0.0
 12
144.7846713293086
 22
149.1742104098307
 32
0.0
 13
144.7846713293086
 23
149.1742104098307
 33
0.0
  0
SOLID
  5
962
330
946
100
AcDbEntity
  8
AM_5
100
AcDbTrace
 10
144.3680046626419
 20
159.1742103370634
 30
0.0
 11
145.2013379959752
 21
159.1742103370634
 31
0.0
 12
144.7846713293086
 22
161.6742103370634
 32
0.0
 13
144.7846713293086
 23
161.6742103370634
 33
0.0
  0
MTEXT
  5
963
330
946
100
AcDbEntity
  8
AM_5
 62
     2
100
AcDbMText
 10
141.5346713293085
 20
155.424210373447
 30
0.0
 40
3.5
 41
0.0
 71
     5
 72
     1
  1
13
 11
0.0000000000000001
 21
1.0
 31
0.0
 73
     1
 44
1.0
1001
ACAD
1000
MTEXTBEGIN
1070
    73
1070
     1
1070
    44
1040
1.0
1070
    74
1070
     0
1000
MTEXTEND
  0
POINT
  5
964
330
946
100
AcDbEntity
  8
Defpoints
 62
     0
100
AcDbPoint
 10
132.7846713293086
 20
149.1742104098307
 30
0.0
  0
POINT
  5
965
330
946
100
AcDbEntity
  8
Defpoints
 62
     0
100
AcDbPoint
 10
132.7846699487186
 20
161.6742103370634
 30
0.0
  0
POINT
  5
966
330
946
100
AcDbEntity
  8
Defpoints
 62
     0
100
AcDbPoint
 10
144.7846713293086
 20
161.6742103370634
 30
0.0
  0
ENDBLK
  5
951
330
946
100
AcDbEntity
  8
0
100
AcDbBlockEnd
  0
BLOCK
  5
986
330
97A
100
AcDbEntity
  8
0
100
AcDbBlockBegin
  2
*D10
 70
     1
 10
0.0
 20
0.0
 30
0.0
  3
*D10
  1

  0
LINE
  5
9B4
330
97A
100
AcDbEntity
  8
AM_5
100
AcDbLine
 10
116.4510620499759
 20
159.1742103370634
 30
0.0
 11
116.4510620499759
 21
156.6742103370634
 31
0.0
  0
LINE
  5
9B5
330
97A
100
AcDbEntity
  8
AM_5
100
AcDbLine
 10
116.4510620499759
 20
170.1742103370634
 30
0.0
 11
116.4510620499759
 21
180.3978323843075
 31
0.0
  0
LINE
  5
9B6
330
97A
100
AcDbEntity
  8
AM_5
100
AcDbLine
 10
116.4510620499759
 20
161.6742103370634
 30
0.0
 11
116.4510620499759
 21
167.6742103370634
 31
0.0
  0
SOLID
  5
9B7
330
97A
100
AcDbEntity
  8
AM_5
100
AcDbTrace
 10
116.0343953833092
 20
159.1742103370634
 30
0.0
 11
116.8677287166426
 21
159.1742103370634
 31
0.0
 12
116.4510620499759
 22
161.6742103370634
 32
0.0
 13
116.4510620499759
 23
161.6742103370634
 33
0.0
  0
SOLID
  5
9B8
330
97A
100
AcDbEntity
  8
AM_5
100
AcDbTrace
 10
116.0343953833093
 20
170.1742103370634
 30
0.0
 11
116.8677287166426
 21
170.1742103370634
 31
0.0
 12
116.4510620499759
 22
167.6742103370634
 32
0.0
 13
116.4510620499759
 23
167.6742103370634
 33
0.0
  0
MTEXT
  5
9B9
330
97A
100
AcDbEntity
  8
AM_5
 62
     2
100
AcDbMText
 10
113.2010620499759
 20
176.5360213606855
 30
0.0
 40
3.5
 41
0.0
 71
     5
 72
     1
  1
%%c6
 11
0.0000000000000001
 21
1.0
 31
0.0
 73
     1
 44
1.0
1001
ACAD
1000
MTEXTBEGIN
1070
    73
1070
     1
1070
    44
1040
1.0
1070
    74
1070
     0
1000
MTEXTEND
  0
POINT
  5
9BA
330
97A
100
AcDbEntity
  8
Defpoints
 62
     0
100
AcDbPoint
 10
112.924663289963
 20
161.6742103370634
 30
0.0
  0
POINT
  5
9BB
330
97A
100
AcDbEntity
  8
Defpoints
 62
     0
100
AcDbPoint
 10
112.924663289963
 20
167.6742103370634
 30
0.0
  0
POINT
  5
9BC
330
97A
100
AcDbEntity
  8
Defpoints
 62
     0
100
AcDbPoint
 10
116.4510620499759
 20
167.6742103370634
 30
0.0
  0
ENDBLK
  5
987
330
97A
100
AcDbEntity
  8
0
100
AcDbBlockEnd
  0
BLOCK
  5
9D9
330
9CD
100
AcDbEntity
  8
0
100
AcDbBlockBegin
  2
*D11
 70
     1
 10
0.0
 20
0.0
 30
0.0
  3
*D11
  1

  0
LINE
  5
A01
330
9CD
100
AcDbEntity
  8
AM_5
100
AcDbLine
 10
186.5127278100467
 20
153.5830871326727
 30
0.0
 11
184.0127278100467
 21
153.5830871326727
 31
0.0
  0
LINE
  5
A02
330
9CD
100
AcDbEntity
  8
AM_5
100
AcDbLine
 10
197.5127278100467
 20
153.5830871326727
 30
0.0
 11
207.7363498572908
 21
153.5830871326727
 31
0.0
  0
LINE
  5
A03
330
9CD
100
AcDbEntity
  8
AM_5
100
AcDbLine
 10
189.0127278100467
 20
153.5830871326727
 30
0.0
 11
195.0127278100467
 21
153.5830871326727
 31
0.0
  0
SOLID
  5
A04
330
9CD
100
AcDbEntity
  8
AM_5
100
AcDbTrace
 10
186.5127278100467
 20
153.9997537993394
 30
0.0
 11
186.5127278100467
 21
153.1664204660061
 31
0.0
 12
189.0127278100467
 22
153.5830871326727
 32
0.0
 13
189.0127278100467
 23
153.5830871326727
 33
0.0
  0
SOLID
  5
A05
330
9CD
100
AcDbEntity
  8
AM_5
100
AcDbTrace
 10
197.5127278100467
 20
153.9997537993394
 30
0.0
 11
197.5127278100467
 21
153.1664204660061
 31
0.0
 12
195.0127278100467
 22
153.5830871326727
 32
0.0
 13
195.0127278100467
 23
153.5830871326727
 33
0.0
  0
MTEXT
  5
A06
330
9CD
100
AcDbEntity
  8
AM_5
 62
     2
100
AcDbMText
 10
203.8745388336688
 20
156.8330871326727
 30
0.0
 40
3.5
 41
0.0
 71
     5
 72
     1
  1
%%c6
 73
     1
 44
1.0
1001
ACAD
1000
MTEXTBEGIN
1070
    73
1070
     1
1070
    44
1040
1.0
1070
    74
1070
     0
1000
MTEXTEND
  0
POINT
  5
A07
330
9CD
100
AcDbEntity
  8
Defpoints
 62
     0
100
AcDbPoint
 10
189.0127278100467
 20
157.8127019757909
 30
0.0
  0
POINT
  5
A08
330
9CD
100
AcDbEntity
  8
Defpoints
 62
     0
100
AcDbPoint
 10
195.0127278100467
 20
157.8127019757909
 30
0.0
  0
POINT
  5
A09
330
9CD
100
AcDbEntity
  8
Defpoints
 62
     0
100
AcDbPoint
 10
195.0127278100467
 20
153.5830871326727
 30
0.0
  0
ENDBLK
  5
9DA
330
9CD
100
AcDbEntity
  8
0
100
AcDbBlockEnd
  0
BLOCK
  5
A28
330
A1E
100
AcDbEntity
  8
0
100
AcDbBlockBegin
  2
*D12
 70
     1
 10
0.0
 20
0.0
 30
0.0
  3
*D12
  1

  0
LINE
  5
A35
330
A1E
100
AcDbEntity
  8
AM_5
100
AcDbLine
 10
127.7379780541873
 20
221.3179633888212
 30
0.0
 11
149.1781798598514
 21
221.3179633888212
 31
0.0
  0
LINE
  5
A36
330
A1E
100
AcDbEntity
  8
AM_5
100
AcDbLine
 10
127.7379780541873
 20
208.8179633888212
 30
0.0
 11
149.1781798598514
 21
208.8179633888212
 31
0.0
  0
LINE
  5
A37
330
A1E
100
AcDbEntity
  8
AM_5
100
AcDbLine
 10
148.1781798598514
 20
218.8179633888212
 30
0.0
 11
148.1781798598514
 21
211.3179633888212
 31
0.0
  0
SOLID
  5
A38
330
A1E
100
AcDbEntity
  8
AM_5
100
AcDbTrace
 10
147.7615131931847
 20
218.8179633888212
 30
0.0
 11
148.594846526518
 21
218.8179633888212
 31
0.0
 12
148.1781798598514
 22
221.3179633888212
 32
0.0
 13
148.1781798598514
 23
221.3179633888212
 33
0.0
  0
SOLID
  5
A39
330
A1E
100
AcDbEntity
  8
AM_5
100
AcDbTrace
 10
147.7615131931847
 20
211.3179633888212
 30
0.0
 11
148.594846526518
 21
211.3179633888212
 31
0.0
 12
148.1781798598514
 22
208.8179633888212
 32
0.0
 13
148.1781798598514
 23
208.8179633888212
 33
0.0
  0
MTEXT
  5
A3A
330
A1E
100
AcDbEntity
  8
AM_5
 62
     2
100
AcDbMText
 10
144.9281798598513
 20
215.0679633888213
 30
0.0
 40
3.5
 41
0.0
 71
     5
 72
     1
  1
13
 11
0.0000000000000001
 21
1.0
 31
0.0
 73
     1
 44
1.0
1001
ACAD
1000
MTEXTBEGIN
1070
    73
1070
     1
1070
    44
1040
1.0
1070
    74
1070
     0
1000
MTEXTEND
  0
POINT
  5
A3B
330
A1E
100
AcDbEntity
  8
Defpoints
 62
     0
100
AcDbPoint
 10
126.7379780541873
 20
221.3179633888212
 30
0.0
  0
POINT
  5
A3C
330
A1E
100
AcDbEntity
  8
Defpoints
 62
     0
100
AcDbPoint
 10
126.7379780541873
 20
208.8179633888212
 30
0.0
  0
POINT
  5
A3D
330
A1E
100
AcDbEntity
  8
Defpoints
 62
     0
100
AcDbPoint
 10
148.1781798598514
 20
208.8179633888212
 30
0.0
  0
ENDBLK
  5
A29
330
A1E
100
AcDbEntity
  8
0
100
AcDbBlockEnd
  0
ENDSEC
  0
SECTION
  2
ENTITIES
  0
INSERT
  5
2F6
330
1F
100
AcDbEntity
  8
AM_0
370
     0
100
AcDbBlockReference
  2
帝金図面用紙HP用
 10
0.0
 20
0.0
 30
0.0
1001
GENIUS_GENOREF_13
1005
50D
1001
GENIUS_GENODEF_13
1002
{
1000
HIER
1070
     0
1002
}
1002
{
1000
MANEDIT
1070
     0
1002
}
1002
{
1000
NOSEL
1070
     0
1002
}
1002
{
1000
BEHIND
1070
     0
1002
}
1002
{
1000
OTHER
1070
     0
1002
}
1002
{
1000
REACTOR
1002
}
1001
GENIUS_GENOBJ-N-SDF_13
1002
{
1000
OWNER
1000
GEN
1002
}
1001
GENIUS_GENSCREG_15
1040
1.0
1040
1.0
1011
19.99999999999994
1021
15.0
1031
0.0
1011
405.0
1021
282.0000000000001
1031
0.0
1070
     3
  0
INSERT
  5
507
330
1F
100
AcDbEntity
  8
AM_0
370
     0
100
AcDbBlockReference
 66
     1
  2
表題HP用
 10
404.9999999999999
 20
15.0
 30
0.0
1001
GENIUS_GENOREF_13
1005
50D
  0
ATTRIB
  5
509
330
507
100
AcDbEntity
  8
AM_BOR
370
    13
100
AcDbText
 10
287.5003431990591
 20
17.99999976028585
 30
0.0
 40
3.5
  1
鉄Uカン6ミリ
  7
スタイル1
100
AcDbAttribute
  2
GEN-TITLE-DWG
 70
     0
  0
ATTRIB
  5
50A
330
507
100
AcDbEntity
  8
AM_BOR
370
    13
100
AcDbText
 10
202.2475071281896
 20
17.99999976028586
 30
0.0
 40
3.5
  1
2006/11/25
  7
スタイル1
100
AcDbAttribute
  2
GEN-TITLE-DAT
 70
     0
  0
ATTRIB
  5
50B
330
507
100
AcDbEntity
  8
AM_BOR
370
    13
100
AcDbText
 10
246.1572136927042
 20
17.99999976028585
 30
0.0
 40
3.5
  1
1:1
  7
スタイル1
100
AcDbAttribute
  2
GEN-TITLE-SCA
 70
     0
  0
SEQEND
  5
508
330
507
100
AcDbEntity
  8
AM_0
370
     0
  0
POINT
  5
50D
330
1F
100
AcDbEntity
  8
0
 60
     1
100
AcDbPoint
 10
0.0
 20
0.0
 30
0.0
1001
GENIUS_GENOLIS_13
1002
{
1000
ENT
1005
507
1005
2F6
1002
}
1001
GENIUS_GENOENT_13
1002
{
1000
MYREF
1005
50D
1002
}
1002
{
1000
GRP
1005
0
1002
}
1001
GENIUS_GENOBJ-N-TIT_13
1002
{
1000
OWNER
1000
GEN
1002
}
1001
GENIUS_GENODEF_13
1002
{
1000
HIER
1070
     1
1002
}
1002
{
1000
MANEDIT
1070
     0
1002
}
1002
{
1000
NOSEL
1070
     0
1002
}
1002
{
1000
BEHIND
1070
     0
1002
}
1002
{
1000
OTHER
1070
     0
1002
}
1002
{
1000
REACTOR
1002
}
1001
GENIUS_GENTITLE_13
1002
{
1000
BORDER
1000
帝金図面用紙HP用
1002
}
1002
{
1000
TITLE
1000
表題HP用
1002
}
1002
{
1000
SCALE
1000
1:1
1002
}
1002
{
1000
TITLESTD
1000
ISO
1002
}
1002
{
1000
HRA
1005
2F6
1002
}
1002
{
1000
HTIT
1005
507
1002
}
1002
{
1000
INVTXTID
1005
0
1002
}
1002
{
1000
UNCHG
1002
{
1000
GEN-TITLE-SIZ
1000
GEN-TITLE-SCA
1002
}
1002
}
1002
{
1000
GENIUSID
1005
50D
1002
}
  0
MTEXT
  5
677
330
1F
100
AcDbEntity
  8
AM_6
100
AcDbMText
 10
307.2422867336893
 20
58.38840114393201
 30
0.0
 40
3.5
 41
72.40564130239
 71
     1
 72
     5
  1
鉄Ｕカン6mm\P材質：SS400　ユニクロメッキ
 73
     1
 44
1.0
1001
GENIUS_AMGTXT_16
1040
3.5
1040
0.12
1001
ACAD
1000
MTEXTBEGIN
1070
    73
1070
     1
1070
    44
1040
1.0
1070
    74
1070
     0
1000
MTEXTEND
  0
ARC
  5
7CF
330
1F
100
AcDbEntity
  8
実線
 62
     0
100
AcDbCircle
 10
127.0854969750858
 20
146.1742103370634
 30
0.0
 40
6.350772380828857
100
AcDbArc
 50
151.8108717382136
 51
208.1891246193201
  0
ARC
  5
7D0
330
1F
100
AcDbEntity
  8
実線
 62
     0
100
AcDbCircle
 10
127.0639820825076
 20
164.6742103370634
 30
0.0
 40
6.33180809020996
100
AcDbArc
 50
151.7188690900925
 51
208.2811409278272
  0
ARC
  5
7D1
330
1F
100
AcDbEntity
  8
実線
100
AcDbCircle
 10
126.7379780541873
 20
215.0679633888212
 30
0.0
 40
4.5
100
AcDbArc
 50
340.5287801669759
 51
0.0
  0
ARC
  5
7D2
330
1F
100
AcDbEntity
  8
実線
100
AcDbCircle
 10
126.7379780541873
 20
215.0679633888212
 30
0.0
 40
4.5
100
AcDbArc
 50
160.5287749306476
 51
199.4712214268819
  0
ARC
  5
7D3
330
1F
100
AcDbEntity
  8
実線
100
AcDbCircle
 10
126.7379780541873
 20
215.0679633888212
 30
0.0
 40
4.5
100
AcDbArc
 50
0.0
 51
19.47121983302407
  0
ARC
  5
7D4
330
1F
100
AcDbEntity
  8
実線
 62
     0
100
AcDbCircle
 10
192.0127278100467
 20
173.4242103370634
 30
0.0
 40
4.5
100
AcDbArc
 50
70.52877925636214
 51
109.4712189224046
  0
ARC
  5
7D5
330
1F
100
AcDbEntity
  8
実線
 62
     0
100
AcDbCircle
 10
126.7379780541873
 20
172.9552924903837
 30
0.0
 40
4.531084060668945
100
AcDbArc
 50
219.5502053800023
 51
320.4497998563189
  0
CIRCLE
  5
7D6
330
1F
100
AcDbEntity
  8
実線
 62
     0
100
AcDbCircle
 10
126.7379780541873
 20
173.4242103370634
 30
0.0
 40
2.0
  0
ARC
  5
7D7
330
1F
100
AcDbEntity
  8
実線
 62
     0
100
AcDbCircle
 10
126.7379780541873
 20
173.4242103370634
 30
0.0
 40
4.5
100
AcDbArc
 50
0.0
 51
180.0000050089504
  0
CIRCLE
  5
7D8
330
1F
100
AcDbEntity
  8
実線
100
AcDbCircle
 10
126.7379780541873
 20
215.0679633888212
 30
0.0
 40
3.0
  0
ARC
  5
7D9
330
1F
100
AcDbEntity
  8
実線
100
AcDbCircle
 10
100.9879627953983
 20
215.0679633888212
 30
0.0
 40
3.0
100
AcDbArc
 50
344.6727020402047
 51
0.0
  0
ARC
  5
7DA
102
{ACAD_REACTORS
330
8C7
102
}
330
1F
100
AcDbEntity
  8
実線
100
AcDbCircle
 10
100.9879627953983
 20
215.0679633888212
 30
0.0
 40
3.0
100
AcDbArc
 50
91.82050746547909
 51
310.3489880352591
  0
ARC
  5
7DB
330
1F
100
AcDbEntity
  8
実線
 62
     0
100
AcDbCircle
 10
126.7379780541873
 20
164.6742103370634
 30
0.0
 40
6.75
100
AcDbArc
 50
333.6121993492465
 51
0.0
  0
ARC
  5
7DC
330
1F
100
AcDbEntity
  8
実線
 62
     0
100
AcDbCircle
 10
126.7379780541873
 20
146.1742103370634
 30
0.0
 40
6.75
100
AcDbArc
 50
333.6121993492465
 51
0.0
  0
ARC
  5
7DD
330
1F
100
AcDbEntity
  8
実線
 62
     0
100
AcDbCircle
 10
192.0127278100467
 20
146.1742103370634
 30
0.0
 40
6.75
100
AcDbArc
 50
333.6121993492465
 51
0.0
  0
ARC
  5
7DE
330
1F
100
AcDbEntity
  8
実線
 62
     0
100
AcDbCircle
 10
192.0127278100467
 20
146.1742103370634
 30
0.0
 40
6.75
100
AcDbArc
 50
153.6121975280163
 51
206.3877988295158
  0
ARC
  5
7DF
330
1F
100
AcDbEntity
  8
実線
 62
     0
100
AcDbCircle
 10
192.0127278100467
 20
164.6742103370634
 30
0.0
 40
6.75
100
AcDbArc
 50
333.6121993492465
 51
0.0
  0
ARC
  5
7E0
330
1F
100
AcDbEntity
  8
実線
 62
     0
100
AcDbCircle
 10
192.0127278100467
 20
164.6742103370634
 30
0.0
 40
6.75
100
AcDbArc
 50
153.6121975280163
 51
206.3877988295158
  0
ARC
  5
7E1
102
{ACAD_REACTORS
330
953
102
}
330
1F
100
AcDbEntity
  8
実線
 62
     0
100
AcDbCircle
 10
126.7379780541873
 20
146.1742103370634
 30
0.0
 40
6.75
100
AcDbArc
 50
0.0
 51
26.38780065075343
  0
ARC
  5
7E2
330
1F
100
AcDbEntity
  8
実線
 62
     0
100
AcDbCircle
 10
126.7379780541873
 20
164.6742103370634
 30
0.0
 40
6.75
100
AcDbArc
 50
0.0
 51
26.38780065075343
  0
ARC
  5
7E3
330
1F
100
AcDbEntity
  8
実線
 62
     0
100
AcDbCircle
 10
192.0127278100467
 20
146.1742103370634
 30
0.0
 40
6.75
100
AcDbArc
 50
0.0
 51
26.38780065075343
  0
ARC
  5
7E4
330
1F
100
AcDbEntity
  8
実線
 62
     0
100
AcDbCircle
 10
192.0127278100467
 20
164.6742103370634
 30
0.0
 40
6.75
100
AcDbArc
 50
0.0
 51
26.38780065075343
  0
ARC
  5
7E5
330
1F
100
AcDbEntity
  8
実線
100
AcDbCircle
 10
100.9879627953983
 20
215.0679633888212
 30
0.0
 40
3.0
100
AcDbArc
 50
0.0
 51
57.49678515016538
  0
ARC
  5
7E6
102
{ACAD_REACTORS
330
8C7
330
A2B
102
}
330
1F
100
AcDbEntity
  8
実線
100
AcDbCircle
 10
126.7379780541873
 20
215.0679633888212
 30
0.0
 40
6.25
100
AcDbArc
 50
208.6853961465087
 51
151.3146038534913
  0
ARC
  5
7E7
330
1F
100
AcDbEntity
  8
実線
 62
     0
100
AcDbCircle
 10
110.2379627953983
 20
155.4242103370634
 30
0.0
 40
6.25
100
AcDbArc
 50
90.0000025044752
 51
270.000000683243
  0
ARC
  5
7E8
330
1F
100
AcDbEntity
  8
実線
 62
     0
100
AcDbCircle
 10
110.2379627953983
 20
155.4242103370634
 30
0.0
 40
12.25
100
AcDbArc
 50
90.0000025044752
 51
270.000000683243
  0
LINE
  5
7E9
330
1F
100
AcDbEntity
  8
実線
 62
     0
100
AcDbLine
 10
189.0127278100467
 20
150.9242103370634
 30
0.0
 11
195.0127278100467
 21
150.9242103370634
 31
0.0
  0
LINE
  5
7EA
330
1F
100
AcDbEntity
  8
実線
 62
     0
100
AcDbLine
 10
123.7379780541873
 20
150.9242103370634
 30
0.0
 11
129.7379780541873
 21
150.9242103370634
 31
0.0
  0
LINE
  5
7EB
330
1F
100
AcDbEntity
  8
実線
 62
     0
100
AcDbLine
 10
190.5127278100467
 20
171.4242103370634
 30
0.0
 11
193.5127278100467
 21
171.4242103370634
 31
0.0
  0
LINE
  5
7EC
330
1F
100
AcDbEntity
  8
実線
 62
     0
100
AcDbLine
 10
190.5127278100467
 20
175.4242103370634
 30
0.0
 11
193.5127278100467
 21
175.4242103370634
 31
0.0
  0
LINE
  5
7ED
330
1F
100
AcDbEntity
  8
中心線
  6
CENTER2
100
AcDbLine
 10
187.0127278100467
 20
173.4242103370634
 30
0.0
 11
197.0127278100467
 21
173.4242103370634
 31
0.0
  0
LINE
  5
7EE
330
1F
100
AcDbEntity
  8
中心線
  6
CENTER2
100
AcDbLine
 10
126.7379780541873
 20
178.4242103370634
 30
0.0
 11
126.7379780541873
 21
168.4242103370634
 31
0.0
  0
LINE
  5
7EF
330
1F
100
AcDbEntity
  8
中心線
  6
CENTER2
100
AcDbLine
 10
131.7379780541873
 20
173.4242103370634
 30
0.0
 11
121.7379780541873
 21
173.4242103370634
 31
0.0
  0
LINE
  5
7F0
330
1F
100
AcDbEntity
  8
実線
100
AcDbLine
 10
122.4953327905154
 20
216.5679633888212
 30
0.0
 11
130.9806233178592
 21
216.5679633888212
 31
0.0
  0
LINE
  5
7F1
330
1F
100
AcDbEntity
  8
実線
100
AcDbLine
 10
122.4953327905154
 20
213.5679633888212
 30
0.0
 11
130.9806233178592
 21
213.5679633888212
 31
0.0
  0
LINE
  5
7F2
330
1F
100
AcDbEntity
  8
破線
  6
HIDDEN2
100
AcDbLine
 10
195.7627278100467
 20
167.6742103370634
 30
0.0
 11
195.7627278100467
 21
161.6742103370634
 31
0.0
  0
LINE
  5
7F3
330
1F
100
AcDbEntity
  8
破線
  6
HIDDEN2
100
AcDbLine
 10
188.2627278100467
 20
167.6742103370634
 30
0.0
 11
188.2627278100467
 21
161.6742103370634
 31
0.0
  0
LINE
  5
7F4
102
{ACAD_REACTORS
330
9DC
102
}
330
1F
100
AcDbEntity
  8
実線
 62
     0
100
AcDbLine
 10
189.0127278100467
 20
161.6742103370634
 30
0.0
 11
189.0127278100467
 21
149.1742103370634
 31
0.0
  0
LINE
  5
7F5
330
1F
100
AcDbEntity
  8
破線
  6
HIDDEN2
100
AcDbLine
 10
189.0127278100467
 20
167.6742103370634
 30
0.0
 11
189.0127278100467
 21
161.6742103370634
 31
0.0
  0
LINE
  5
7F6
102
{ACAD_REACTORS
330
9DC
102
}
330
1F
100
AcDbEntity
  8
実線
 62
     0
100
AcDbLine
 10
195.0127278100467
 20
161.6742103370634
 30
0.0
 11
195.0127278100467
 21
149.1742103370634
 31
0.0
  0
LINE
  5
7F7
330
1F
100
AcDbEntity
  8
破線
  6
HIDDEN2
100
AcDbLine
 10
195.0127278100467
 20
167.6742103370634
 30
0.0
 11
195.0127278100467
 21
161.6742103370634
 31
0.0
  0
LINE
  5
7F8
330
1F
100
AcDbEntity
  8
実線
 62
     0
100
AcDbLine
 10
189.0127278100467
 20
143.1742179664579
 30
0.0
 11
189.0127278100467
 21
142.9242179664579
 31
0.0
  0
LINE
  5
7F9
330
1F
100
AcDbEntity
  8
破線
  6
HIDDEN2
100
AcDbLine
 10
189.0127278100467
 20
149.1742103370634
 30
0.0
 11
189.0127278100467
 21
143.1742179664579
 31
0.0
  0
LINE
  5
7FA
330
1F
100
AcDbEntity
  8
実線
 62
     0
100
AcDbLine
 10
194.5127278100467
 20
143.1742179664579
 30
0.0
 11
194.5127278100467
 21
142.4242179664579
 31
0.0
  0
LINE
  5
7FB
330
1F
100
AcDbEntity
  8
破線
  6
HIDDEN2
100
AcDbLine
 10
194.5127278100467
 20
149.1742103370634
 30
0.0
 11
194.5127278100467
 21
143.1742179664579
 31
0.0
  0
LINE
  5
7FC
330
1F
100
AcDbEntity
  8
実線
 62
     0
100
AcDbLine
 10
189.5127278100467
 20
143.1742179664579
 30
0.0
 11
189.5127278100467
 21
142.4242179664579
 31
0.0
  0
LINE
  5
7FD
330
1F
100
AcDbEntity
  8
破線
  6
HIDDEN2
100
AcDbLine
 10
189.5127278100467
 20
149.1742103370634
 30
0.0
 11
189.5127278100467
 21
143.1742179664579
 31
0.0
  0
LINE
  5
7FE
330
1F
100
AcDbEntity
  8
実線
 62
     0
100
AcDbLine
 10
195.0127278100467
 20
143.1742179664579
 30
0.0
 11
195.0127278100467
 21
142.9242179664579
 31
0.0
  0
LINE
  5
7FF
330
1F
100
AcDbEntity
  8
破線
  6
HIDDEN2
100
AcDbLine
 10
195.0127278100467
 20
149.1742103370634
 30
0.0
 11
195.0127278100467
 21
143.1742179664579
 31
0.0
  0
LINE
  5
800
330
1F
100
AcDbEntity
  8
実線
 62
     0
100
AcDbLine
 10
189.0127249690541
 20
142.9242233303355
 30
0.0
 11
189.5127255084061
 21
142.4242227909835
 31
0.0
  0
LINE
  5
801
330
1F
100
AcDbEntity
  8
実線
 62
     0
100
AcDbLine
 10
194.5127282045267
 20
142.4242200935853
 30
0.0
 11
195.0127287438786
 21
142.924220632937
 31
0.0
  0
LINE
  5
802
330
1F
100
AcDbEntity
  8
実線
 62
     0
100
AcDbLine
 10
194.5127268558276
 20
150.9242171242749
 30
0.0
 11
195.0127273951794
 21
151.4242176636269
 31
0.0
  0
LINE
  5
803
330
1F
100
AcDbEntity
  8
実線
 62
     0
100
AcDbLine
 10
189.5127255084061
 20
150.9242211703724
 30
0.0
 11
189.0127249690541
 21
151.4242217097244
 31
0.0
  0
LINE
  5
804
330
1F
100
AcDbEntity
  8
実線
 62
     0
100
AcDbLine
 10
194.5127278100467
 20
150.9242103370634
 30
0.0
 11
194.5127278100467
 21
149.1742103370634
 31
0.0
  0
LINE
  5
805
330
1F
100
AcDbEntity
  8
実線
 62
     0
100
AcDbLine
 10
189.5127278100467
 20
150.9242103370634
 30
0.0
 11
189.5127278100467
 21
149.1742103370634
 31
0.0
  0
LINE
  5
806
330
1F
100
AcDbEntity
  8
実線
 62
     0
100
AcDbLine
 10
189.0127278100467
 20
142.9242179664579
 30
0.0
 11
195.0127278100467
 21
142.9242179664579
 31
0.0
  0
LINE
  5
807
330
1F
100
AcDbEntity
  8
実線
 62
     0
100
AcDbLine
 10
193.5127263838289
 20
170.0701203049345
 30
0.0
 11
195.0127305025839
 21
168.4242177415976
 31
0.0
  0
LINE
  5
808
330
1F
100
AcDbEntity
  8
実線
 62
     0
100
AcDbLine
 10
190.5127327927048
 20
170.0701114729929
 30
0.0
 11
189.0127325282577
 21
168.4242131388546
 31
0.0
  0
LINE
  5
809
330
1F
100
AcDbEntity
  8
実線
 62
     0
100
AcDbLine
 10
193.5127278100467
 20
177.6668556007353
 30
0.0
 11
193.5127278100467
 21
170.070114878079
 31
0.0
  0
LINE
  5
80A
330
1F
100
AcDbEntity
  8
実線
 62
     0
100
AcDbLine
 10
190.5127278100467
 20
177.6668556007353
 30
0.0
 11
190.5127278100467
 21
170.070114878079
 31
0.0
  0
LINE
  5
80B
330
1F
100
AcDbEntity
  8
実線
 62
     0
100
AcDbLine
 10
189.5127278100467
 20
142.4242179664579
 30
0.0
 11
194.5127278100467
 21
142.4242179664579
 31
0.0
  0
LINE
  5
80C
330
1F
100
AcDbEntity
  8
実線
 62
     0
100
AcDbLine
 10
123.7379780541873
 20
143.1742179664579
 30
0.0
 11
123.7379780541873
 21
142.9242179664579
 31
0.0
  0
LINE
  5
80D
330
1F
100
AcDbEntity
  8
破線
  6
HIDDEN2
100
AcDbLine
 10
123.7379780541873
 20
149.1742103370634
 30
0.0
 11
123.7379780541873
 21
143.1742179664579
 31
0.0
  0
LINE
  5
80E
330
1F
100
AcDbEntity
  8
実線
 62
     0
100
AcDbLine
 10
124.2379780541873
 20
143.1742179664579
 30
0.0
 11
124.2379780541873
 21
142.4242179664579
 31
0.0
  0
LINE
  5
80F
330
1F
100
AcDbEntity
  8
破線
  6
HIDDEN2
100
AcDbLine
 10
124.2379780541873
 20
149.1742103370634
 30
0.0
 11
124.2379780541873
 21
143.1742179664579
 31
0.0
  0
LINE
  5
810
330
1F
100
AcDbEntity
  8
実線
 62
     0
100
AcDbLine
 10
129.7379780541873
 20
143.1742179664579
 30
0.0
 11
129.7379780541873
 21
142.9242179664579
 31
0.0
  0
LINE
  5
811
330
1F
100
AcDbEntity
  8
破線
  6
HIDDEN2
100
AcDbLine
 10
129.7379780541873
 20
149.1742103370634
 30
0.0
 11
129.7379780541873
 21
143.1742179664579
 31
0.0
  0
LINE
  5
812
330
1F
100
AcDbEntity
  8
実線
 62
     0
100
AcDbLine
 10
129.2379780541873
 20
143.1742179664579
 30
0.0
 11
129.2379780541873
 21
142.4242179664579
 31
0.0
  0
LINE
  5
813
330
1F
100
AcDbEntity
  8
破線
  6
HIDDEN2
100
AcDbLine
 10
129.2379780541873
 20
149.1742103370634
 30
0.0
 11
129.2379780541873
 21
143.1742179664579
 31
0.0
  0
LINE
  5
814
330
1F
100
AcDbEntity
  8
実線
 62
     0
100
AcDbLine
 10
129.7379771639683
 20
142.924220632937
 30
0.0
 11
129.2379766246164
 21
142.4242200935853
 31
0.0
  0
LINE
  5
815
330
1F
100
AcDbEntity
  8
実線
 62
     0
100
AcDbLine
 10
123.7379706917456
 20
142.924220632937
 30
0.0
 11
124.2379604415042
 21
142.4242308831785
 31
0.0
  0
LINE
  5
816
330
1F
100
AcDbEntity
  8
実線
 62
     0
100
AcDbLine
 10
123.7379780541873
 20
142.9242179664579
 30
0.0
 11
129.7379780541873
 21
142.9242179664579
 31
0.0
  0
LINE
  5
817
330
1F
100
AcDbEntity
  8
実線
 62
     0
100
AcDbLine
 10
129.7379771639683
 20
151.4242190123261
 30
0.0
 11
129.2379766246164
 21
150.9242184729742
 31
0.0
  0
LINE
  5
818
330
1F
100
AcDbEntity
  8
実線
 62
     0
100
AcDbLine
 10
123.7379706917455
 20
151.4242190123261
 30
0.0
 11
124.2379604415042
 21
150.9242292625674
 31
0.0
  0
LINE
  5
819
330
1F
100
AcDbEntity
  8
実線
 62
     0
100
AcDbLine
 10
124.2379780541873
 20
142.4242179664579
 30
0.0
 11
129.2379780541873
 21
142.4242179664579
 31
0.0
  0
LINE
  5
81A
330
1F
100
AcDbEntity
  8
実線
 62
     0
100
AcDbLine
 10
124.2379780541873
 20
150.9242103370634
 30
0.0
 11
124.2379780541873
 21
149.1742103370634
 31
0.0
  0
LINE
  5
81B
330
1F
100
AcDbEntity
  8
実線
 62
     0
100
AcDbLine
 10
129.2379780541873
 20
150.9242103370634
 30
0.0
 11
129.2379780541873
 21
149.1742103370634
 31
0.0
  0
LINE
  5
81C
330
1F
100
AcDbEntity
  8
実線
 62
     0
100
AcDbLine
 10
123.7379780541873
 20
161.6742103370634
 30
0.0
 11
123.7379780541873
 21
149.1742103370634
 31
0.0
  0
LINE
  5
81D
330
1F
100
AcDbEntity
  8
破線
  6
HIDDEN2
100
AcDbLine
 10
123.7379780541873
 20
167.6742103370634
 30
0.0
 11
123.7379780541873
 21
161.6742103370634
 31
0.0
  0
LINE
  5
81E
330
1F
100
AcDbEntity
  8
破線
  6
HIDDEN2
100
AcDbLine
 10
129.7379780541873
 20
167.6742103370634
 30
0.0
 11
129.7379780541873
 21
161.6742103370634
 31
0.0
  0
LINE
  5
81F
330
1F
100
AcDbEntity
  8
実線
 62
     0
100
AcDbLine
 10
129.7379780541873
 20
161.6742103370634
 30
0.0
 11
129.7379780541873
 21
149.1742103370634
 31
0.0
  0
LINE
  5
820
102
{ACAD_REACTORS
330
953
102
}
330
1F
100
AcDbEntity
  8
実線
 62
     0
100
AcDbLine
 10
129.7379780541873
 20
161.6742103370634
 30
0.0
 11
132.7846699487186
 21
161.6742103370634
 31
0.0
  0
LINE
  5
821
330
1F
100
AcDbEntity
  8
実線
 62
     0
100
AcDbLine
 10
129.7379780541873
 20
167.6742103370634
 30
0.0
 11
132.7846699487186
 21
167.6742103370634
 31
0.0
  0
LINE
  5
822
330
1F
100
AcDbEntity
  8
破線
  6
HIDDEN2
100
AcDbLine
 10
130.4879780541873
 20
167.6742103370634
 30
0.0
 11
130.4879780541873
 21
161.6742103370634
 31
0.0
  0
LINE
  5
823
330
1F
100
AcDbEntity
  8
破線
  6
HIDDEN2
100
AcDbLine
 10
122.9879780541873
 20
167.6742103370634
 30
0.0
 11
122.9879780541873
 21
161.6742103370634
 31
0.0
  0
LINE
  5
824
330
1F
100
AcDbEntity
  8
実線
 62
     0
100
AcDbLine
 10
123.2442036401248
 20
170.070114878079
 30
0.0
 11
130.2317372094608
 21
170.070114878079
 31
0.0
  0
LINE
  5
825
330
1F
100
AcDbEntity
  8
実線
 62
     0
100
AcDbLine
 10
131.2379720053127
 20
173.4242149320325
 30
0.0
 11
129.7379718175367
 21
168.4242144098277
 31
0.0
  0
LINE
  5
826
330
1F
100
AcDbEntity
  8
実線
 62
     0
100
AcDbLine
 10
122.2379699791213
 20
173.4242135688819
 30
0.0
 11
123.7379701668973
 21
168.4242130466771
 31
0.0
  0
LINE
  5
827
330
1F
100
AcDbEntity
  8
実線
 62
     0
100
AcDbLine
 10
129.7379780541873
 20
168.4242103370634
 30
0.0
 11
129.7379780541873
 21
167.6742103370634
 31
0.0
  0
LINE
  5
828
330
1F
100
AcDbEntity
  8
実線
 62
     0
100
AcDbLine
 10
123.7379780541873
 20
168.4242103370634
 30
0.0
 11
123.7379780541873
 21
167.6742103370634
 31
0.0
  0
LINE
  5
829
330
1F
100
AcDbEntity
  8
中心線
  6
CENTER2
100
AcDbLine
 10
126.7379780541873
 20
222.2599647315947
 30
0.0
 11
126.7379780541873
 21
207.6907356056181
 31
0.0
  0
LINE
  5
82A
330
1F
100
AcDbEntity
  8
中心線
  6
CENTER2
100
AcDbLine
 10
126.7379780541873
 20
171.4798896583524
 30
0.0
 11
126.7379780541873
 21
141.8157584938017
 31
0.0
  0
LINE
  5
82B
330
1F
100
AcDbEntity
  8
実線
 62
     0
100
AcDbLine
 10
185.9660359155155
 20
161.6742103370634
 30
0.0
 11
198.059419704578
 21
161.6742103370634
 31
0.0
  0
LINE
  5
82C
330
1F
100
AcDbEntity
  8
実線
 62
     0
100
AcDbLine
 10
185.9660359155155
 20
167.6742103370634
 30
0.0
 11
198.059419704578
 21
167.6742103370634
 31
0.0
  0
LINE
  5
82D
330
1F
100
AcDbEntity
  8
実線
 62
     0
100
AcDbLine
 10
185.9660359155155
 20
143.1742179664579
 30
0.0
 11
198.059419704578
 21
143.1742179664579
 31
0.0
  0
LINE
  5
82E
330
1F
100
AcDbEntity
  8
実線
 62
     0
100
AcDbLine
 10
185.9660359155155
 20
149.1742103370634
 30
0.0
 11
198.059419704578
 21
149.1742103370634
 31
0.0
  0
LINE
  5
82F
330
1F
100
AcDbEntity
  8
実線
 62
     0
100
AcDbLine
 10
189.0127278100467
 20
168.4242103370634
 30
0.0
 11
189.0127278100467
 21
167.6742103370634
 31
0.0
  0
LINE
  5
830
330
1F
100
AcDbEntity
  8
実線
 62
     0
100
AcDbLine
 10
195.0127278100467
 20
168.4242103370634
 30
0.0
 11
195.0127278100467
 21
167.6742103370634
 31
0.0
  0
LINE
  5
831
330
1F
100
AcDbEntity
  8
中心線
  6
CENTER2
100
AcDbLine
 10
192.0127278100467
 20
178.8045203956571
 30
0.0
 11
192.0127278100467
 21
141.399819162747
 31
0.0
  0
LINE
  5
832
330
1F
100
AcDbEntity
  8
実線
100
AcDbLine
 10
100.9879627953983
 20
212.0679633888212
 30
0.0
 11
121.2550526391483
 21
212.0679633888212
 31
0.0
  0
LINE
  5
833
330
1F
100
AcDbEntity
  8
実線
100
AcDbLine
 10
100.9879627953983
 20
218.0679633888212
 30
0.0
 11
121.2550526391483
 21
218.0679633888212
 31
0.0
  0
LINE
  5
834
330
1F
100
AcDbEntity
  8
中心線
  6
CENTER2
100
AcDbLine
 10
95.51683242430454
 20
215.0679633888212
 30
0.0
 11
136.1781788598514
 21
215.0679633888212
 31
0.0
  0
LINE
  5
835
330
1F
100
AcDbEntity
  8
実線
 62
     0
100
AcDbLine
 10
110.2379627953983
 20
149.1742103370634
 30
0.0
 11
132.7846699487186
 21
149.1742103370634
 31
0.0
  0
LINE
  5
836
102
{ACAD_REACTORS
330
989
102
}
330
1F
100
AcDbEntity
  8
実線
 62
     0
100
AcDbLine
 10
110.2379627953983
 20
161.6742103370634
 30
0.0
 11
129.7379780541873
 21
161.6742103370634
 31
0.0
  0
LINE
  5
837
102
{ACAD_REACTORS
330
989
102
}
330
1F
100
AcDbEntity
  8
実線
 62
     0
100
AcDbLine
 10
110.2379627953983
 20
167.6742103370634
 30
0.0
 11
129.7379780541873
 21
167.6742103370634
 31
0.0
  0
LINE
  5
838
330
1F
100
AcDbEntity
  8
実線
 62
     0
100
AcDbLine
 10
110.2379627953983
 20
143.1742179664579
 30
0.0
 11
132.7846699487186
 21
143.1742179664579
 31
0.0
  0
DIMENSION
  5
8B9
102
{ACAD_XDICTIONARY
360
8C6
102
}
102
{ACAD_REACTORS
330
8C7
102
}
330
1F
100
AcDbEntity
  8
AM_5
100
AcDbDimension
  2
*D8
 10
132.9879780541873
 20
234.2599657315947
 30
0.0
 11
115.4879704247928
 21
237.5099657315947
 31
0.0
 70
    32
 71
     5
 42
35.00001525878906
  3
AM_ISO$0
100
AcDbAlignedDimension
 13
97.98796279539828
 23
215.0679633888212
 33
0.0
 14
132.9879780541873
 24
215.0679633888212
 34
0.0
 50
0.0000000000000114
100
AcDbRotatedDimension
  0
DIMENSION
  5
945
102
{ACAD_XDICTIONARY
360
952
102
}
102
{ACAD_REACTORS
330
953
102
}
330
1F
100
AcDbEntity
  8
AM_5
100
AcDbDimension
  2
*D9
 10
144.7846713293086
 20
161.6742103370634
 30
0.0
 11
141.5346713293085
 21
155.424210373447
 31
0.0
 70
    32
  1
13
 71
     5
 42
12.49999992723272
  3
AM_ISO$0
100
AcDbAlignedDimension
 13
132.7846713293086
 23
149.1742104098307
 33
0.0
 14
132.7846699487186
 24
161.6742103370634
 34
0.0
 50
90.00000000000003
100
AcDbRotatedDimension
  0
DIMENSION
  5
979
102
{ACAD_XDICTIONARY
360
988
102
}
102
{ACAD_REACTORS
330
989
102
}
330
1F
100
AcDbEntity
  8
AM_5
100
AcDbDimension
  2
*D10
 10
116.4510620499759
 20
167.6742103370634
 30
0.0
 11
116.4510620499759
 21
176.5360213606855
 31
0.0
 70
   160
  1
%%c<>
 71
     5
 42
5.999999999999971
  3
AM_ISO$0
100
AcDbAlignedDimension
 13
112.924663289963
 23
161.6742103370634
 33
0.0
 14
112.924663289963
 24
167.6742103370634
 34
0.0
 50
90.00000000000003
100
AcDbRotatedDimension
1001
ACAD
1000
DSTYLE
1002
{
1070
    75
1070
     1
1070
    76
1070
     1
1002
}
  0
DIMENSION
  5
9CC
102
{ACAD_XDICTIONARY
360
9DB
102
}
102
{ACAD_REACTORS
330
9DC
102
}
330
1F
100
AcDbEntity
  8
AM_5
100
AcDbDimension
  2
*D11
 10
195.0127278100467
 20
153.5830871326727
 30
0.0
 11
203.8745388336688
 21
156.8330871326727
 31
0.0
 70
    32
  1
%%c<>
 71
     5
 42
6.0
  3
AM_ISO$0
100
AcDbAlignedDimension
 13
189.0127278100467
 23
157.8127019757909
 33
0.0
 14
195.0127278100467
 24
157.8127019757909
 34
0.0
 50
0.0000000000001132
100
AcDbRotatedDimension
1001
ACAD
1000
DSTYLE
1002
{
1070
    75
1070
     1
1070
    76
1070
     1
1002
}
  0
DIMENSION
  5
A1D
102
{ACAD_XDICTIONARY
360
A2A
102
}
102
{ACAD_REACTORS
330
A2B
102
}
330
1F
100
AcDbEntity
  8
AM_5
100
AcDbDimension
  2
*D12
 10
148.1781798598514
 20
208.8179633888212
 30
0.0
 11
144.9281798598513
 21
215.0679633888213
 31
0.0
 70
    32
 71
     5
 42
12.5
  3
AM_ISO$0
100
AcDbAlignedDimension
 13
126.7379780541873
 23
221.3179633888212
 33
0.0
 14
126.7379780541873
 24
208.8179633888212
 34
0.0
 50
90.0
100
AcDbRotatedDimension
1001
ACAD
1000
DSTYLE
1002
{
1070
   271
1070
     0
1002
}
  0
ENDSEC
  0
SECTION
  2
OBJECTS
  0
DICTIONARY
  5
C
330
0
100
AcDbDictionary
281
     1
  3
ACAD_COLOR
350
BE
  3
ACAD_GROUP
350
D
  3
ACAD_LAYOUT
350
1A
  3
ACAD_MATERIAL
350
BD
  3
ACAD_MLINESTYLE
350
17
  3
ACAD_PLOTSETTINGS
350
19
  3
ACAD_PLOTSTYLENAME
350
E
  3
ACAD_TABLESTYLE
350
11A
  3
ACDBHEADERROUNDTRIPXREC
350
AF1
  3
AcDbVariableDictionary
350
94
  3
AcmDictionary
350
5B
  3
AMG
350
41
  3
AMGSNAPSETTINGS
350
1B8
  3
DWGPROPS
350
AF0
  0
DICTIONARY
  5
21F
330
2
100
AcDbDictionary
280
     1
281
     1
  3
AMLAYER_GROUPCOLORS
360
220
  0
DICTIONARY
  5
8F
330
1F
100
AcDbDictionary
280
     1
281
     1
  0
DICTIONARY
  5
2D8
330
2CF
100
AcDbDictionary
280
     1
281
     1
  3
ACAD_SORTENTS
360
2D9
  0
DICTIONARY
  5
302
330
301
100
AcDbDictionary
280
     1
281
     1
  3
ACAD_SORTENTS
360
303
  0
DICTIONARY
  5
4ED
330
3FC
100
AcDbDictionary
280
     1
281
     1
  3
ACAD_SORTENTS
360
4EE
  0
DICTIONARY
  5
8C6
330
8B9
100
AcDbDictionary
280
     1
281
     1
  3
ACAD_DIMASSOC
360
8C7
  0
DICTIONARY
  5
952
330
945
100
AcDbDictionary
280
     1
281
     1
  3
ACAD_DIMASSOC
360
953
  0
DICTIONARY
  5
988
330
979
100
AcDbDictionary
280
     1
281
     1
  3
ACAD_DIMASSOC
360
989
  0
DICTIONARY
  5
9DB
330
9CC
100
AcDbDictionary
280
     1
281
     1
  3
ACAD_DIMASSOC
360
9DC
  0
DICTIONARY
  5
A2A
330
A1D
100
AcDbDictionary
280
     1
281
     1
  3
ACAD_DIMASSOC
360
A2B
  0
DICTIONARY
  5
BE
102
{ACAD_REACTORS
330
C
102
}
330
C
100
AcDbDictionary
281
     1
  0
DICTIONARY
  5
D
102
{ACAD_REACTORS
330
C
102
}
330
C
100
AcDbDictionary
281
     1
  0
DICTIONARY
  5
1A
102
{ACAD_REACTORS
330
C
102
}
330
C
100
AcDbDictionary
281
     1
  3
Model
350
22
  3
レイアウト1
350
1E
  3
レイアウト2
350
26
  0
DICTIONARY
  5
BD
102
{ACAD_REACTORS
330
C
102
}
330
C
100
AcDbDictionary
281
     1
  0
DICTIONARY
  5
17
102
{ACAD_REACTORS
330
C
102
}
330
C
100
AcDbDictionary
281
     1
  3
Standard
350
18
  0
DICTIONARY
  5
19
102
{ACAD_REACTORS
330
C
102
}
330
C
100
AcDbDictionary
281
     1
  0
ACDBDICTIONARYWDFLT
  5
E
102
{ACAD_REACTORS
330
C
102
}
330
C
100
AcDbDictionary
281
     1
  3
Normal
350
F
100
AcDbDictionaryWithDefault
340
F
  0
DICTIONARY
  5
11A
102
{ACAD_REACTORS
330
C
102
}
330
C
100
AcDbDictionary
281
     1
  3
Standard
350
11B
  0
DICTIONARY
  5
AF1
102
{ACAD_REACTORS
330
C
102
}
330
C
100
AcDbDictionary
281
     1
  0
DICTIONARY
  5
94
102
{ACAD_REACTORS
330
C
102
}
330
C
100
AcDbDictionary
281
     1
  3
CTABLESTYLE
350
138
  3
DIMASSOC
350
96
  3
INDEXCTL
350
95
  3
PROJECTNAME
350
A6D
  0
DICTIONARY
  5
5B
102
{ACAD_REACTORS
330
C
102
}
330
C
100
AcDbDictionary
281
     1
  3
AcmBOM
350
1B5
  3
AcmStdDictionary
350
61
  3
AMDTSECTSYM_ARROWCOLOR
350
123
  0
DICTIONARY
  5
41
102
{ACAD_REACTORS
330
C
102
}
330
C
100
AcDbDictionary
281
     1
  0
DICTIONARY
  5
1B8
102
{ACAD_REACTORS
330
C
102
}
330
C
100
AcDbDictionary
281
     1
  0
XRECORD
  5
AF0
102
{ACAD_REACTORS
330
C
102
}
330
C
100
AcDbXrecord
280
     1
  1
DWGPROPS COOKIE
  2

  3

  4

  6

  7

  8

  9

300
AmdtFileType=84
301
=
302
=
303
=
304
=
305
=
306
=
307
=
308
=
309
=
 40
0.0045283680555556
 41
2454065.595304538
 42
2454162.641291956
  1

 90
        1
  0
DICTIONARY
  5
220
102
{ACAD_REACTORS
330
21F
102
}
330
21F
100
AcDbDictionary
280
     1
281
     1
  0
SORTENTSTABLE
  5
2D9
102
{ACAD_REACTORS
330
2D8
102
}
330
2D8
100
AcDbSortentsTable
330
2CF
331
2D6
  5
2D2
331
2D4
  5
2D0
331
2D2
  5
2D6
331
2D0
  5
2D4
331
2D7
  5
2D3
331
2D5
  5
2D1
331
2D3
  5
2D7
331
2D1
  5
2D5
  0
SORTENTSTABLE
  5
303
102
{ACAD_REACTORS
330
302
102
}
330
302
100
AcDbSortentsTable
330
301
  0
SORTENTSTABLE
  5
4EE
102
{ACAD_REACTORS
330
4ED
102
}
330
4ED
100
AcDbSortentsTable
330
3FC
331
408
  5
409
331
406
  5
407
331
404
  5
405
331
402
  5
403
331
409
  5
401
331
407
  5
408
331
405
  5
406
331
403
  5
404
331
401
  5
402
  0
DIMASSOC
  5
8C7
102
{ACAD_REACTORS
330
8C6
102
}
330
8C6
100
AcDbDimAssoc
330
8B9
 90
        3
 70
     0
 71
     0
  1
AcDbOsnapPointRef
 72
     5
331
7DA
 73
     0
 91
        0
 40
3.141592653589793
 10
0.0
 20
0.0
 30
0.0
 75
     0
  1
AcDbOsnapPointRef
 72
    68
331
7E6
 73
     0
 91
        0
 40
0.0
 10
0.0
 20
0.0
 30
0.0
 75
     0
  0
DIMASSOC
  5
953
102
{ACAD_REACTORS
330
952
102
}
330
952
100
AcDbDimAssoc
330
945
 90
        3
 70
     0
 71
     0
  1
AcDbOsnapPointRef
 72
     1
331
7E1
 73
     0
 91
        0
 40
0.0
 10
0.0
 20
0.0
 30
2.000000000000000E+50
 75
     0
  1
AcDbOsnapPointRef
 72
     1
331
820
 73
     0
 91
        0
 40
0.0
 10
0.0
 20
0.0
 30
2.000000000000000E+50
 75
     0
  0
DIMASSOC
  5
989
102
{ACAD_REACTORS
330
988
102
}
330
988
100
AcDbDimAssoc
330
979
 90
        3
 70
     0
 71
     0
  1
AcDbOsnapPointRef
 72
    10
331
836
 73
     0
 91
        0
 40
0.1377794047291232
 10
0.0
 20
0.0
 30
0.0
 75
     0
  1
AcDbOsnapPointRef
 72
     8
331
837
 73
     0
 91
        0
 40
0.1377794047291224
 10
0.0
 20
0.0
 30
0.0
 75
     1
  1
AcDbOsnapPointRef
 72
    10
331
836
 73
     0
 91
        0
 40
0.1377794047291232
 10
0.0
 20
0.0
 30
0.0
 75
     0
  0
DIMASSOC
  5
9DC
102
{ACAD_REACTORS
330
9DB
102
}
330
9DB
100
AcDbDimAssoc
330
9CC
 90
        3
 70
     0
 71
     0
  1
AcDbOsnapPointRef
 72
    10
331
7F4
 73
     0
 91
        0
 40
0.308920668901801
 10
0.0
 20
0.0
 30
0.0
 75
     0
  1
AcDbOsnapPointRef
 72
     8
331
7F6
 73
     0
 91
        0
 40
0.308920668901801
 10
0.0
 20
0.0
 30
0.0
 75
     1
  1
AcDbOsnapPointRef
 72
    10
331
7F4
 73
     0
 91
        0
 40
0.308920668901801
 10
0.0
 20
0.0
 30
0.0
 75
     0
  0
DIMASSOC
  5
A2B
102
{ACAD_REACTORS
330
A2A
102
}
330
A2A
100
AcDbDimAssoc
330
A1D
 90
        3
 70
     0
 71
     0
  1
AcDbOsnapPointRef
 72
     5
331
7E6
 73
     0
 91
        0
 40
7.853981633974482
 10
0.0
 20
0.0
 30
0.0
 75
     0
  1
AcDbOsnapPointRef
 72
     5
331
7E6
 73
     0
 91
        0
 40
4.712388980384689
 10
0.0
 20
0.0
 30
0.0
 75
     0
  0
LAYOUT
  5
22
102
{ACAD_XDICTIONARY
360
AF4
102
}
102
{ACAD_REACTORS
330
1A
102
}
330
1A
100
AcDbPlotSettings
  1

  2

  4

  6

 40
0.0
 41
0.0
 42
0.0
 43
0.0
 44
0.0
 45
0.0
 46
0.0
 47
0.0
 48
0.0
 49
0.0
140
0.0
141
0.0
142
1.0
143
1.0
 70
  1712
 72
     0
 73
     0
 74
     0
  7

 75
     0
147
1.0
148
0.0
149
0.0
100
AcDbLayout
  1
Model
 70
     1
 71
     0
 10
0.0
 20
0.0
 11
12.0
 21
9.0
 12
0.0
 22
0.0
 32
0.0
 14
0.0
 24
0.0
 34
0.0
 15
0.0
 25
0.0
 35
0.0
146
0.0
 13
0.0
 23
0.0
 33
0.0
 16
1.0
 26
0.0
 36
0.0
 17
0.0
 27
1.0
 37
0.0
 76
     0
330
1F
  0
LAYOUT
  5
1E
102
{ACAD_XDICTIONARY
360
AF2
102
}
102
{ACAD_REACTORS
330
1A
102
}
330
1A
100
AcDbPlotSettings
  1

  2

  4

  6

 40
0.0
 41
0.0
 42
0.0
 43
0.0
 44
0.0
 45
0.0
 46
0.0
 47
0.0
 48
0.0
 49
0.0
140
0.0
141
0.0
142
1.0
143
1.0
 70
   688
 72
     0
 73
     0
 74
     5
  7

 75
    16
147
1.0
148
0.0
149
0.0
100
AcDbLayout
  1
レイアウト1
 70
     1
 71
     1
 10
0.0
 20
0.0
 11
420.0
 21
297.0
 12
0.0
 22
0.0
 32
0.0
 14
1.000000000000000E+20
 24
1.000000000000000E+20
 34
1.000000000000000E+20
 15
-1.000000000000000E+20
 25
-1.000000000000000E+20
 35
-1.000000000000000E+20
146
0.0
 13
0.0
 23
0.0
 33
0.0
 16
1.0
 26
0.0
 36
0.0
 17
0.0
 27
1.0
 37
0.0
 76
     0
330
1B
  0
LAYOUT
  5
26
102
{ACAD_XDICTIONARY
360
AF6
102
}
102
{ACAD_REACTORS
330
1A
102
}
330
1A
100
AcDbPlotSettings
  1

  2

  4

  6

 40
0.0
 41
0.0
 42
0.0
 43
0.0
 44
0.0
 45
0.0
 46
0.0
 47
0.0
 48
0.0
 49
0.0
140
0.0
141
0.0
142
1.0
143
1.0
 70
   688
 72
     0
 73
     0
 74
     5
  7

 75
    16
147
1.0
148
0.0
149
0.0
100
AcDbLayout
  1
レイアウト2
 70
     1
 71
     2
 10
0.0
 20
0.0
 11
12.0
 21
9.0
 12
0.0
 22
0.0
 32
0.0
 14
0.0
 24
0.0
 34
0.0
 15
0.0
 25
0.0
 35
0.0
146
0.0
 13
0.0
 23
0.0
 33
0.0
 16
1.0
 26
0.0
 36
0.0
 17
0.0
 27
1.0
 37
0.0
 76
     0
330
23
  0
MLINESTYLE
  5
18
102
{ACAD_REACTORS
330
17
102
}
330
17
100
AcDbMlineStyle
  2
STANDARD
 70
     0
  3

 62
   256
 51
90.0
 52
90.0
 71
     2
 49
0.5
 62
   256
  6
BYLAYER
 49
-0.5
 62
   256
  6
BYLAYER
  0
ACDBPLACEHOLDER
  5
F
102
{ACAD_REACTORS
330
E
102
}
330
E
  0
TABLESTYLE
  5
11B
102
{ACAD_REACTORS
330
11A
102
}
330
11A
100
AcDbTableStyle
  3
Standard
 70
     0
 71
     0
 40
1.5
 41
1.5
280
     0
281
     0
  7
STANDARD
140
4.5
170
     2
 62
     0
 63
     7
283
     0
274
    -2
284
     1
 64
     0
275
    -2
285
     1
 65
     0
276
    -2
286
     1
 66
     0
277
    -2
287
     1
 67
     0
278
    -2
288
     1
 68
     0
279
    -2
289
     1
 69
     0
  7
STANDARD
140
6.0
170
     5
 62
     0
 63
     7
283
     0
274
    -2
284
     1
 64
     0
275
    -2
285
     1
 65
     0
276
    -2
286
     1
 66
     0
277
    -2
287
     1
 67
     0
278
    -2
288
     1
 68
     0
279
    -2
289
     1
 69
     0
  7
STANDARD
140
4.5
170
     5
 62
     0
 63
     7
283
     0
274
    -2
284
     1
 64
     0
275
    -2
285
     1
 65
     0
276
    -2
286
     1
 66
     0
277
    -2
287
     1
 67
     0
278
    -2
288
     1
 68
     0
279
    -2
289
     1
 69
     0
  0
DICTIONARYVAR
  5
138
102
{ACAD_REACTORS
330
94
102
}
330
94
100
DictionaryVariables
280
     0
  1
STANDARD
  0
DICTIONARYVAR
  5
96
102
{ACAD_REACTORS
330
94
102
}
330
94
100
DictionaryVariables
280
     0
  1
2
  0
DICTIONARYVAR
  5
95
102
{ACAD_REACTORS
330
94
102
}
330
94
100
DictionaryVariables
280
     0
  1
0
  0
DICTIONARYVAR
  5
A6D
102
{ACAD_REACTORS
330
94
102
}
330
94
100
DictionaryVariables
280
     0
  1

  0
DICTIONARY
  5
1B5
102
{ACAD_REACTORS
330
5B
102
}
330
5B
100
AcDbDictionary
281
     1
  0
DICTIONARY
  5
61
102
{ACAD_REACTORS
330
5B
102
}
330
5B
100
AcDbDictionary
281
     1
  0
XRECORD
  5
123
102
{ACAD_REACTORS
330
5B
102
}
330
5B
100
AcDbXrecord
280
     1
 90
-1023410169
  0
DICTIONARY
  5
AF4
330
22
100
AcDbDictionary
280
     1
281
     1
  3
ACAD_XREC_ROUNDTRIP
360
AF5
  0
DICTIONARY
  5
AF2
330
1E
100
AcDbDictionary
280
     1
281
     1
  3
ACAD_XREC_ROUNDTRIP
360
AF3
  0
DICTIONARY
  5
AF6
330
26
100
AcDbDictionary
280
     1
281
     1
  3
ACAD_XREC_ROUNDTRIP
360
AF7
  0
XRECORD
  5
AF5
102
{ACAD_REACTORS
330
AF4
102
}
330
AF4
100
AcDbXrecord
280
     1
102
SHADEPLOT
 70
     0
102
SHADEPLOTRESLEVEL
 70
     2
102
SHADEPLOTCUSTOMDPI
 70
   300
  0
XRECORD
  5
AF3
102
{ACAD_REACTORS
330
AF2
102
}
330
AF2
100
AcDbXrecord
280
     1
102
SHADEPLOT
 70
     0
102
SHADEPLOTRESLEVEL
 70
     2
102
SHADEPLOTCUSTOMDPI
 70
   300
  0
XRECORD
  5
AF7
102
{ACAD_REACTORS
330
AF6
102
}
330
AF6
100
AcDbXrecord
280
     1
102
SHADEPLOT
 70
     0
102
SHADEPLOTRESLEVEL
 70
     2
102
SHADEPLOTCUSTOMDPI
 70
   300
  0
ENDSEC
  0
EOF
